<?xml version="1.0" standalone="no"?>
<!DOCTYPE svg PUBLIC "-//W3C//DTD SVG 1.1//EN" "http://www.w3.org/Graphics/SVG/1.1/DTD/svg11.dtd" >
<svg xmlns="http://www.w3.org/2000/svg">
<metadata></metadata>
<defs>
<font id="nuicons24regular" horiz-adv-x="800" >
<font-face units-per-em="1200" ascent="960" descent="-240" />
<missing-glyph horiz-adv-x="500" />
<glyph unicode="&#x25fc;" horiz-adv-x="500" d="M0 0z" />
<glyph unicode="&#xe001;" d="M400 800q166 0 283 -117t117 -283t-117 -283t-283 -117t-283 117t-117 283t117 283t283 117zM333 181l334 334l-85 85l-249 -250l-115 131l-85 -85z" />
<glyph unicode="&#xe002;" d="M152 46l-106 107l248 247l-248 247l107 107l247 -248l248 248l106 -107l-248 -247l248 -247l-107 -107l-247 248z" />
<glyph unicode="&#xe003;" d="M400 800q166 0 283 -117t117 -283t-117 -283t-283 -117t-283 117t-117 283t117 283t283 117zM625 250l-150 150l150 150l-75 75l-150 -150l-150 150l-75 -75l150 -150l-150 -150l75 -75l150 150l150 -150z" />
<glyph unicode="&#xe004;" d="M350 50v300h-300v100h300v300h100v-300h300v-100h-300v-300h-100z" />
<glyph unicode="&#xe005;" d="M400 800q166 0 283 -117t117 -283t-117 -283t-283 -117t-283 117t-117 283t117 283t283 117zM650 350v100h-200v200h-100v-200h-200v-100h200v-200h100v200h200z" />
<glyph unicode="&#xe006;" d="M750 350h-700v100h700v-100z" />
<glyph unicode="&#xe007;" d="M400 800q166 0 283 -117t117 -283t-117 -283t-283 -117t-283 117t-117 283t117 283t283 117zM650 350v100h-500v-100h500z" />
<glyph unicode="&#xe008;" d="M346 232h106q0 38 6.5 57.5t31.5 41.5q50 40 82 87.5t32 103.5q0 83 -51.5 130.5t-144.5 47.5q-85 0 -138.5 -44t-52.5 -122l1 -3h103q0 39 25.5 59t61.5 20q43 0 66 -23.5t23 -65.5q0 -37 -20 -67.5t-54 -64.5q-49 -41 -63 -68t-14 -89zM454 50v103h-109v-103h109z" />
<glyph unicode="&#xe009;" d="M400 800q165 0 282.5 -117t117.5 -283t-117.5 -283t-282.5 -117t-282.5 117t-117.5 283t117.5 283t282.5 117zM435 150v80h-85v-80h85zM526 436q25 37 25 81q0 65 -40 101.5t-112 36.5q-66 0 -108 -34t-41 -95l1 -2h80q0 30 20 45.5t48 15.5q33 0 51 -18t18 -51 q0 -29 -15.5 -53t-42.5 -49q-38 -32 -48.5 -53t-11.5 -70h83q0 29 5 44.5t25 32.5q38 31 63 68z" />
<glyph unicode="&#xe00a;" d="M450 47v450h-100v-450h100zM400 591q23 0 39.5 16.5t16.5 39.5q0 15 -7.5 28t-20.5 20.5t-28 7.5q-23 0 -39.5 -16.5t-16.5 -39.5t16.5 -39.5t39.5 -16.5z" />
<glyph unicode="&#xe00b;" d="M400 800q165 0 282.5 -117t117.5 -283t-117.5 -283t-282.5 -117t-282.5 117t-117.5 283t117.5 283t282.5 117zM450 150v350h-100v-350h100zM400 545q23 0 39 16t16 39t-16 39t-39 16t-39 -16t-16 -39t16 -39t39 -16z" />
<glyph unicode="&#xe00c;" d="M454 775l384 -675q23 -39 6.5 -68.5t-61.5 -29.5h-766q-45 0 -61.5 30t6.5 69l384 673q22 40 54 40t54 -39zM450 103v100h-100v-100h100zM450 477v127h-100v-127l25 -224h51z" />
<glyph unicode="&#xe00d;" d="M200 0v800h-100v-800h100zM750 385v300q-34 -25 -71 -30.5t-72 4.5t-71 26t-72 32.5t-71 26t-72 4.5t-71 -30v-367q34 29 71 39.5t72 5.5t71 -16.5l72 -23t71 -16.5t72 5t71 40z" />
<glyph unicode="&#xe00e;" d="M400 829l-106 -327h-344l278 -203l-106 -328l278 202l278 -202l-106 328l278 203h-344z" />
<glyph unicode="&#xe00f;" d="M589 703q88 0 149.5 -60t61.5 -145q0 -44 -17.5 -90t-48 -86.5t-66.5 -79.5t-77 -74t-76.5 -65t-67.5 -58.5t-47 -47.5q-17 22 -57 57t-82.5 69.5t-90 80.5t-84.5 90.5t-61.5 98.5t-24.5 105q0 85 63 145t150 60q132 0 187 -151q55 151 189 151z" />
<glyph unicode="&#xe010;" d="M250 397l150 -150l-50 -200q-17 22 -57 57t-82.5 69.5t-90 80.5t-84.5 90.5t-61.5 98.5t-24.5 105q0 85 63 145t150 60q132 0 187 -151zM637 703q87 0 150 -60t63 -145q0 -51 -28 -105t-70.5 -98.5t-96.5 -90.5t-102.5 -80.5t-91.5 -69.5t-61 -57l100 200l-150 200 l100 155q55 151 187 151z" />
<glyph unicode="&#xe011;" d="M400 650q51 0 103 -14t95 -36t83 -48.5t70 -53t53 -48.5t34 -36l12 -14q-8 -10 -23 -27t-63.5 -60t-98 -76t-122.5 -60t-143 -27q-51 0 -103 14t-95 36t-83 48.5t-70 53t-53 48.5t-34 36l-12 14q8 10 23 27t63.5 60t98 76t122.5 60t143 27zM400 200q83 0 141.5 58.5 t58.5 141.5t-58.5 141.5t-141.5 58.5t-141.5 -58.5t-58.5 -141.5t58.5 -141.5t141.5 -58.5zM400 496q41 0 70.5 -29t29.5 -70.5t-29.5 -71t-70.5 -29.5t-70.5 29.5t-29.5 71t29.5 70.5t70.5 29z" />
<glyph unicode="&#xe012;" d="M813 771l-190 -190q27 -15 54.5 -33.5t49.5 -36t42 -35.5t34.5 -32.5t25 -26t16.5 -17.5l5 -7q-8 -10 -23 -26.5t-63.5 -60t-98 -76.5t-122.5 -60t-143 -27q-86 0 -175 40l-190 -190l-35 36l177 177q-38 21 -75 48t-63.5 50.5t-47.5 44t-31 32.5l-10 12q8 11 23 27.5 t63.5 59.5t98 76t122.5 60t143 27q85 0 175 -39l203 203zM200 393q0 -67 43 -122l70 71q-13 23 -13 48q0 41 29.5 70.5t70.5 29.5q25 0 48 -13l74 74q-55 42 -122 42q-83 0 -141.5 -58.5t-58.5 -141.5zM400 193q83 0 141.5 59t58.5 141q0 68 -43 122l-72 -72q15 -25 15 -53 q0 -42 -29.5 -71t-70.5 -29q-28 0 -53 15l-69 -69q55 -43 122 -43z" />
<glyph unicode="&#xe013;" d="M400 800q109 0 201 -53.5t145.5 -145.5t53.5 -201q0 -128 -74 -232q-39 -55 -94 -94q-104 -74 -232 -74q-109 0 -201 53.5t-145.5 145.5t-53.5 201q0 128 74 232q39 55 94 94q104 74 232 74zM400 89q92 0 168 49l-430 430q-49 -76 -49 -168q0 -129 91 -220t220 -91z M232 662l430 -430q49 76 49 168q0 129 -91 220t-220 91q-92 0 -168 -49z" />
<glyph unicode="&#xe014;" d="M850 500l50 -75l-50 -75h-50l-50 50l-50 -50l-50 50l-50 -50l-50 50l-50 -50h-164q-24 -66 -81.5 -108t-129.5 -42q-93 0 -159 66t-66 159q0 94 66 160t159 66q73 0 130 -41.5t81 -109.5h514zM75 350q31 0 53 22t22 53t-22 53t-53 22t-53 -22t-22 -53t22 -53t53 -22z" />
<glyph unicode="&#xe015;" d="M600 450h150v-450h-700v450h150v150q0 83 58.5 141.5t141.5 58.5t141.5 -58.5t58.5 -141.5v-150zM275 600v-150h250v150q0 52 -36.5 88.5t-88.5 36.5t-88.5 -36.5t-36.5 -88.5z" />
<glyph unicode="&#xe016;" d="M750 800q83 0 141.5 -58.5t58.5 -141.5v-150h-75v150q0 52 -36.5 88.5t-88.5 36.5t-88.5 -36.5t-36.5 -88.5v-150h125v-450h-700v450h500v150q0 83 58.5 141.5t141.5 58.5z" />
<glyph unicode="&#xe017;" d="M475 500q31 0 53 -22t22 -53t-22 -53t-53 -22t-53 22t-22 53t22 53t53 22zM100 750h700v-700h-700v100h100v150h-100v200h100v150h-100v100zM700 406v38l-70 17q-6 26 -20 48l37 62l-26 26l-62 -37q-23 14 -48 20l-17 70h-38l-17 -70q-26 -6 -48 -20l-62 37l-26 -26 l37 -62q-14 -23 -20 -48l-70 -17v-38l70 -17q6 -26 20 -48l-37 -62l26 -26l62 37q23 -14 48 -20l17 -70h38l17 70q26 6 48 20l62 -37l26 26l-37 62q14 23 20 48zM50 50v700h-50v-700h50z" />
<glyph unicode="&#xe018;" d="M50 400l350 -300v200h350v200h-350v200z" />
<glyph unicode="&#xe019;" d="M750 400l-350 300v-200h-350v-200h350v-200z" />
<glyph unicode="&#xe01a;" d="M400 750l-300 -350h200v-350h200v350h200z" />
<glyph unicode="&#xe01b;" d="M400 50l300 350h-200v350h-200v-350h-200z" />
<glyph unicode="&#xe01c;" d="M150 400l400 -350v700z" />
<glyph unicode="&#xe01d;" d="M650 400l-400 -350v700z" />
<glyph unicode="&#xe01e;" d="M400 650l350 -400h-700z" />
<glyph unicode="&#xe01f;" d="M400 150l-350 400h700z" />
<glyph unicode="&#xe020;" d="M400 0q-166 0 -283 117t-117 283t117 283t283 117t283 -117t117 -283t-117 -283t-283 -117zM500 650l-300 -250l300 -250v500z" />
<glyph unicode="&#xe021;" d="M400 800q166 0 283 -117t117 -283t-117 -283t-283 -117t-283 117t-117 283t117 283t283 117zM300 150l300 250l-300 250v-500z" />
<glyph unicode="&#xe022;" d="M400 800q166 0 283 -117t117 -283t-117 -283t-283 -117t-283 117t-117 283t117 283t283 117zM650 300l-250 300l-250 -300h500z" />
<glyph unicode="&#xe023;" d="M400 800q166 0 283 -117t117 -283t-117 -283t-283 -117t-283 117t-117 283t117 283t283 117zM150 500l250 -300l250 300h-500z" />
<glyph unicode="&#xe024;" d="M300 191v209q71 0 140 -14t122.5 -36t101 -48.5t80.5 -53t57.5 -48.5t36.5 -36l12 -14q-3 9 -9.5 25.5t-30 63t-51 89t-75 94.5t-100.5 89.5t-127.5 63t-156.5 25.5v200l-400 -300z" />
<glyph unicode="&#xe025;" d="M500 191v209q-71 0 -140 -14t-122.5 -36t-101 -48.5t-80.5 -53t-57.5 -48.5t-36.5 -36l-12 -14q3 9 9.5 25.5t30 63t51 89t75 94.5t100.5 89.5t127.5 63t156.5 25.5v200l400 -300z" />
<glyph unicode="&#xe027;" d="M446 800h354v-354l-106 107l-148 -149l-142 142l149 148zM400 259l-153 -153l107 -106h-354v354l106 -107l153 153z" />
<glyph unicode="&#xe028;" d="M845 706l-148 -150l106 -108h-353v357l106 -105l148 148zM350 348v-354l-105 105l-149 -147l-141 141l148 149l-106 106h353z" />
<glyph unicode="&#xe029;" d="M800 425l-200 -175v100h-150v-150h100l-175 -200l-175 200h100v150h-150v-100l-200 175l200 175v-100h150v150h-100l175 200l175 -200h-100v-150h150v100z" />
<glyph unicode="&#xe02a;" d="M397 100q90 0 164.5 49.5t109.5 130.5l93 -37q-46 -109 -146 -176t-221 -67q-109 0 -201 53.5t-145.5 145.5t-53.5 200.5t53.5 200.5t145.5 145.5t201 53.5q140 0 250 -90l111 131l45 -333l-336 -10l115 136q-82 66 -185 66q-124 0 -212 -88t-88 -212t88 -211.5 t212 -87.5z" />
<glyph unicode="&#xe02b;" d="M267 450h-267v283l87 -90q55 71 136.5 110t176.5 39q149 0 259.5 -96t134.5 -246h-102q-23 110 -103 173.5t-189 63.5q-74 0 -137 -31.5t-105 -88.5zM800 350v-283l-91 93q-55 -72 -137 -112t-178 -40q-149 0 -259.5 96t-134.5 246h102q23 -111 103 -174.5t189 -63.5 q74 0 137.5 32.5t105.5 90.5l-110 115h273z" />
<glyph unicode="&#xe02d;" d="M718 47l-318 318l-318 -319l-35 36l318 318l-318 318l35 35l318 -318l318 318l35 -35l-318 -318l318 -318z" />
<glyph unicode="&#xe02e;" d="M276 75l-289 288l114 113l175 -175l423 424l113 -113z" />
<glyph unicode="&#xe02f;" d="M225 48l668 668l-36 36l-632 -633l-282 283l-36 -36z" />
<glyph unicode="&#xe030;" d="M551 800l-351 -400l351 -400v57l-300 343l300 343v57z" />
<glyph unicode="&#xe031;" d="M250 800l350 -400l-350 -400v57l300 343l-300 343v57z" />
<glyph unicode="&#xe032;" d="M0 250l400 350l400 -350h-57l-343 300l-343 -300h-57z" />
<glyph unicode="&#xe033;" d="M800 550l-400 -350l-400 350h57l343 -300l343 300h57z" />
<glyph unicode="&#xe034;" d="M750 450v-50h-350v-350h-50v350h-350v50h350v350h50v-350h350z" />
<glyph unicode="&#xe035;" d="M750 400v50h-750v-50h750z" />
<glyph unicode="&#xe036;" d="M304 319l-161 -162l107 -107h-250v250l107 -107l162 161zM500 800h250v-250l-107 107l-162 -161l-35 35l161 162z" />
<glyph unicode="&#xe037;" d="M754 769l-161 -162l107 -107h-250v250l107 -107l162 161zM50 350h250v-250l-107 107l-162 -161l-35 35l161 162z" />
<glyph unicode="&#xe038;" d="M-50 50v300h400v-300h-400zM0 300v-200h300v200h-300zM100 400v150h500v-400h-200v50h150v300h-400v-100h-50zM250 750h600v-500h-200v50h150v400h-500v-100h-50v150z" />
<glyph unicode="&#xe039;" d="M0 700h800v-100h-800v100zM0 350v100h800v-100h-800zM0 100v100h800v-100h-800z" />
<glyph unicode="&#xe03a;" d="M-50 300v200h200v-200h-200zM300 300v200h200v-200h-200zM650 300v200h200v-200h-200z" />
<glyph unicode="&#xe03b;" d="M30 99l71 -70l300 300l298 -299l71 71l-299 298l300 300l-70 71l-300 -300l-302 301l-70 -70l301 -302z" />
<glyph unicode="&#xe100;" d="M150 100v600h150v-600h-150zM350 400l300 300v-600z" />
<glyph unicode="&#xe101;" d="M400 400l300 300v-600zM350 100l-300 300l300 300v-600z" />
<glyph unicode="&#xe102;" d="M150 100v600h200v-600h-200zM450 700h200v-600h-200v600z" />
<glyph unicode="&#xe103;" d="M100 100v600h600v-600h-600z" />
<glyph unicode="&#xe104;" d="M700 400l-500 -300v600z" />
<glyph unicode="&#xe105;" d="M100 100v600l300 -300zM450 700l300 -300l-300 -300v600z" />
<glyph unicode="&#xe106;" d="M500 700h150v-600h-150v600zM150 100v600l300 -300z" />
<glyph unicode="&#xe109;" d="M250 600h283q110 0 188.5 -81.5t78.5 -193.5q0 -111 -78.5 -193t-188.5 -82h-283v150h283q56 0 95 35.5t39 89.5q0 55 -39 90t-95 35h-283v-150l-250 225l250 225v-150z" />
<glyph unicode="&#xe10a;" d="M550 600h-283q-110 0 -188.5 -81.5t-78.5 -193.5q0 -111 78.5 -193t188.5 -82h283v150h-283q-56 0 -95 35.5t-39 89.5q0 55 39 90t95 35h283v-150l250 225l-250 225v-150z" />
<glyph unicode="&#xe10b;" d="M400 550l200 200v-700l-200 200h-200v300h200z" />
<glyph unicode="&#xe10c;" d="M97 550h200l200 200v-700l-200 200h-200v300zM660 623q92 -92 92 -223t-92 -223q-10 -10 -25 -10t-25 10q-10 11 -10 25.5t10 24.5q72 71 72 173t-72 173q-10 10 -10 24.5t10 25.5q10 10 25 10t25 -10z" />
<glyph unicode="&#xe10d;" d="M487 166q14 0 24 10q92 92 92 222.5t-92 222.5q-10 10 -24.5 10t-24.5 -10q-10 -11 -10 -25t10 -25q71 -71 71 -172.5t-71 -172.5q-10 -10 -10 -25t10 -25t25 -10zM588 67q15 0 25 10q87 87 118 204t0 234t-118 205q-11 10 -25 10t-24 -10t-10 -25t10 -25q73 -74 99 -173 t0 -198t-99 -172q-10 -11 -10 -25t10 -25q9 -10 24 -10zM690 -32q13 0 25 10q84 85 129 193.5t45 226.5q0 119 -45 227.5t-129 192.5q-11 10 -25 10t-25 -10q-10 -10 -10 -24.5t10 -24.5q101 -100 137 -235t0 -270.5t-137 -235.5q-10 -10 -10 -25t10 -25q12 -10 25 -10z M-1 549h200l200 200v-701l-200 200h-200v301z" />
<glyph unicode="&#xe10e;" d="M-1 550h201l200 200v-700l-200 200h-201v300zM851 506l-106 -106l106 -106l-70 -71l-106 106l-106 -106l-71 71l106 106l-106 106l71 71l106 -106l106 106z" />
<glyph unicode="&#xe10f;" d="M150 550h200l200 200v-700l-200 200h-200v300zM18 817l-35 -35l181 -182h71zM817 19l-217 217v-71l182 -182z" />
<glyph unicode="&#xe115;" d="M850 648v-546h-900v546h208l92 100h300l92 -100h208zM400 152q103 0 176.5 73t73.5 176.5t-73.5 177t-176.5 73.5t-176.5 -73.5t-73.5 -177t73.5 -176.5t176.5 -73zM550 402q0 62 -44 106t-106 44t-106 -44t-44 -106t44 -106t106 -44t106 44t44 106z" />
<glyph unicode="&#xe116;" d="M850 648v-550l-300 250v-250h-600v550h600v-250z" />
<glyph unicode="&#xe117;" d="M150 300q-38 0 -69 31t-31 69t31 69t69 31t69 -31t31 -69t-31 -69t-69 -31zM400 300q-38 0 -69 31t-31 69t31 69t69 31t69 -31t31 -69t-31 -69t-69 -31zM650 300q-38 0 -69 31t-31 69t31 69t69 31t69 -31t31 -69t-31 -69t-69 -31z" />
<glyph unicode="&#xe118;" d="M150 300q-38 0 -69 31t-31 69t31 69t69 31t69 -31t31 -69t-31 -69t-69 -31zM400 300q-38 0 -69 31t-31 69t31 69t69 31t69 -31t31 -69t-31 -69t-69 -31zM650 300q-38 0 -69 31t-31 69t31 69t69 31t69 -31t31 -69t-31 -69t-69 -31z" />
<glyph unicode="&#xe119;" d="M150 300q-38 0 -69 31t-31 69t31 69t69 31t69 -31t31 -69t-31 -69t-69 -31zM400 300q-38 0 -69 31t-31 69t31 69t69 31t69 -31t31 -69t-31 -69t-69 -31zM650 300q-38 0 -69 31t-31 69t31 69t69 31t69 -31t31 -69t-31 -69t-69 -31z" />
<glyph unicode="&#xe11a;" d="M150 300q-38 0 -69 31t-31 69t31 69t69 31t69 -31t31 -69t-31 -69t-69 -31zM400 300q-38 0 -69 31t-31 69t31 69t69 31t69 -31t31 -69t-31 -69t-69 -31zM650 300q-38 0 -69 31t-31 69t31 69t69 31t69 -31t31 -69t-31 -69t-69 -31z" />
<glyph unicode="&#xe11b;" d="M150 300q-38 0 -69 31t-31 69t31 69t69 31t69 -31t31 -69t-31 -69t-69 -31zM400 300q-38 0 -69 31t-31 69t31 69t69 31t69 -31t31 -69t-31 -69t-69 -31zM650 300q-38 0 -69 31t-31 69t31 69t69 31t69 -31t31 -69t-31 -69t-69 -31z" />
<glyph unicode="&#xe11c;" d="M150 300q-38 0 -69 31t-31 69t31 69t69 31t69 -31t31 -69t-31 -69t-69 -31zM400 300q-38 0 -69 31t-31 69t31 69t69 31t69 -31t31 -69t-31 -69t-69 -31zM650 300q-38 0 -69 31t-31 69t31 69t69 31t69 -31t31 -69t-31 -69t-69 -31z" />
<glyph unicode="&#xe122;" d="M400 173l-278 -202l106 328l-278 203h344l106 327v-656z" />
<glyph unicode="&#xe127;" d="M400 667l-59 -180l-11 -35h-36h-191l155 -113l29 -21l-11 -34l-59 -182l154 112l29 21l29 -21l154 -112l-59 181l-11 35l29 21l155 113h-191h-36l-11 35zM400 829l106 -327h344l-278 -203l106 -328l-278 202l-278 -202l106 328l-278 203h344z" />
<glyph unicode="&#xe128;" d="M589 653q-99 0 -142 -118q-5 -15 -18 -24t-29 -9t-29 9t-18 24q-15 41 -34.5 67t-45.5 38.5t-60 12.5q-44 0 -81.5 -21t-59.5 -56.5t-22 -77.5q0 -27 9.5 -56.5t23 -54.5t38.5 -55.5t44 -51.5t52 -51t51 -45.5t52 -44.5q57 -48 80 -69q23 21 80 69q34 29 52 44.5t51 45.5 t52 51t44 51.5t38.5 55.5t23 54.5t9.5 56.5q0 32 -12.5 60.5t-34 49t-51.5 33t-63 12.5zM589 703q88 0 149.5 -60t61.5 -145q0 -51 -24.5 -105t-61.5 -98.5t-84.5 -90.5t-90 -80.5t-82.5 -69.5t-57 -57q-17 22 -57 57t-82.5 69.5t-90 80.5t-84.5 90.5t-61.5 98.5t-24.5 105 q0 85 63 145t150 60q132 0 187 -151q55 151 189 151z" />
<glyph unicode="&#xe129;" d="M402 99q-91 0 -165.5 50t-109.5 131l-93 -38q46 -108 146 -175.5t222 -67.5q81 0 155 32t127.5 85.5t85.5 127.5t32 155.5t-32 155.5t-85.5 127.5t-127.5 85t-155 31.5q-140 0 -251 -89l-111 131l-42 -346h333l-115 138q82 66 186 66q124 0 212 -88t88 -212t-88 -212 t-212 -88z" />
<glyph unicode="&#xe12a;" d="M625 249q52 0 88.5 -36.5t36.5 -88.5t-36.5 -88.5t-88.5 -36.5t-88.5 36.5t-36.5 88.5q0 16 5 35l-252 168q-35 -28 -78 -28q-52 0 -88.5 36.5t-36.5 88.5t36.5 88.5t88.5 36.5q43 0 78 -28l252 168q-5 19 -5 35q0 52 36.5 88.5t88.5 36.5t88.5 -36.5t36.5 -88.5 t-36.5 -88.5t-88.5 -36.5q-43 0 -78 28l-252 -168q5 -19 5 -35t-5 -35l252 -168q35 28 78 28z" />
<glyph unicode="&#xe200;" d="M231 651q-44 0 -64 21.5t-16 52.5q4 30 28 52t60 22q43 0 68 -18.5t28 -45.5q4 -32 -24 -57.5t-80 -26.5zM594 651q-45 -3 -67 19.5t-18 54.5q4 29 27 52t58 23q34 -1 57.5 -11.5t34 -26.5t10.5 -37q-1 -29 -26.5 -50.5t-75.5 -23.5zM639 496q105 10 110 -70 q6 -78 -79 -195q-90 -124 -208 -188q-79 -43 -148 -43q-139 0 -213 128q-56 97 -50 210q5 97 53 124q12 6 25 7q27 1 72.5 2.5t81.5 3t85 3.5t91 4t90 5.5t90 8.5zM321 84q108 0 219 110q80 79 105 154q17 62 -24 64q-51 0 -188.5 -9t-288.5 -15q-18 -1 -27 -52 q-14 -85 25 -157q53 -95 179 -95z" />
<glyph unicode="&#xe201;" d="M450 0v400h100l19 150h-119v75q0 14 0.5 21.5t3 19.5t7.5 18t15 11t25 5h74l25 150h-141q-159 -2 -159 -178v-122h-100v-150h100v-400h150z" />
<glyph unicode="&#xe202;" d="M100 800h600q41 0 70.5 -29.5t29.5 -70.5v-600q0 -41 -29.5 -70.5t-70.5 -29.5h-600q-41 0 -70.5 29.5t-29.5 70.5v600q0 41 29.5 70.5t70.5 29.5zM659 585l19 115h-108q-121 -1 -121 -136v-93h-77v-115h77v-306h114v306h77l14 115h-91v57q0 14 0.5 21t4 17t12 14.5 t22.5 4.5h57z" />
<glyph unicode="&#xe203;" d="M825 660q-34 -52 -87 -91q0 -3 0.5 -11t0.5 -11q0 -88 -33.5 -175t-94 -159.5t-157 -117.5t-212.5 -45q-145 0 -267 79q21 -3 42 -3q120 0 216 75q-57 1 -101.5 35t-61.5 86q16 -3 33 -3q23 0 46 6q-60 12 -100 60t-40 111v2q39 -21 79 -21q-77 51 -77 145q0 49 23 87 q66 -80 159.5 -128.5t200.5 -53.5q-5 22 -5 40q0 72 51 123t124 51q75 0 127 -55q59 12 110 43q-20 -63 -76 -97q51 6 100 28z" />
<glyph unicode="&#xe204;" d="M405 800h-114q-7 -62 -28 -102q-20 -40 -53.5 -68.5t-80.5 -44.5v-113h88v-280q0 -55 12 -84q11 -29 40.5 -54.5t72.5 -39.5q42 -14 97 -14q48 0 89.5 10t92.5 34v126q-60 -40 -120 -40q-35 0 -61 16q-20 12 -27.5 31.5t-7.5 89.5v205h190v126h-190v202z" />
<glyph unicode="&#xe205;" d="M1 651q8 -3 13 -7.5t6 -6.5l1 -3v-293q1 -57 -10 -87t-33 -49q-16 -13 -26 -13q-6 0 -7 5l4 17q5 14 8 35t3 36v14l1 316l-4 4q-52 -45 -55 -128q0 -19 4 -35t9 -23l4 -6q1 -1 1.5 -2t1.5 -3.5t1 -4.5q0 -4 -1.5 -6t-3.5 -2h-2q-4 0 -8.5 1.5t-9 4t-9.5 6t-9.5 7.5 t-8 8.5t-7 9.5t-5.5 10q-4 8 -6.5 17.5t-2.5 14.5v6q1 24 15.5 59t41.5 62q11 11 22.5 19.5t19 12.5t13 6.5t8.5 2.5h3q8 2 28 -5zM941 317l9 -31q-23 -48 -59 -44q-20 2 -33.5 15.5t-17 23.5t-3.5 18q-1 -3 -3 -6.5t-9 -13.5t-15.5 -17.5t-23.5 -13.5t-32 -6 q-9 0 -16.5 2.5t-13.5 6.5t-10.5 8.5t-8 9t-5.5 8.5l-3 6l-1 3q-6 10 -11 29q-1 -3 -2 -5q-9 -25 -26.5 -45.5t-41.5 -21.5q-18 0 -32 10.5t-20.5 25.5t-10.5 30t-5 26v10q-44 -103 -126 -102q-14 0 -26 1.5t-19.5 3.5t-13.5 5t-9.5 5.5t-5.5 5.5t-2.5 4.5t-0.5 2.5 q0 10 7 19q11 17 20 17q1 0 3.5 -1t4.5 -2t3.5 -2.5l2.5 -2.5l1 -1q15 -14 32 -14q25 1 28 36q3 24 -28 52l-31 28q-12 -20 -31.5 -51t-26.5 -44q-22 -36 -44 -49.5t-35 -11.5q-35 4 -36 73q0 24 1 59.5t2 62.5l1 27l-4 2q-30 -31 -51.5 -86.5t-28.5 -89.5t-7 -42 q0 -6 -11 -6q-2 0 -5 0.5t-17 0.5q-11 1 -16.5 12.5t-5.5 22.5v11l1 216q1 12 30 4q10 -2 15.5 -5.5t5.5 -5.5l1 -2l-1 -125q12 35 24 61.5t21.5 42t21 24t18 11.5t17 1.5t14 -3t12.5 -6.5q12 -6 18 -14t5 -13v-5q-3 -94 -4 -127q-1 -46 11 -48q6 -1 16.5 11t22 30.5t22 37 t17.5 31.5l7 13q-20 26 -15 49.5t24 37.5q7 5 15.5 8.5t14.5 3.5l5 1q3 0 8 -0.5t13 -6t8 -16.5q0 -13 -7.5 -28t-15.5 -24l-7 -9q49 -35 68.5 -54.5t22.5 -41.5v-9v-7t-0.5 -5.5t-0.5 -3.5l-1 -1q19 16 30 35.5t13 30.5l2 11l1 137h-62q-5 1 -6 12q0 6 1.5 11.5t3 9t3.5 6 t3 3.5l1 1l59 -1q2 62 3 71q1 11 9 13t28 -3q11 -3 17.5 -6t7.5 -5l1 -2l-3 -71q65 -3 73 -4q7 -1 9 -4t1 -14q-1 -4 -2 -7.5t-2.5 -5.5t-3 -3t-2.5 -2h-1l-73 -2l-5 -158q0 -82 24 -82q14 0 26.5 17.5t18.5 34.5l6 18v1q-1 19 2 40q5 50 27.5 87t62.5 37q2 1 4.5 0.5 t9.5 -2t13.5 -4.5t14.5 -10.5t13 -17.5l1 13v2t1 3.5t3.5 4t7 2.5t11.5 0q34 -6 33 -22q0 -4 -0.5 -11t-1 -27.5t-1 -39.5t-0.5 -42t1 -39q2 -28 8 -41.5t19 -12.5q18 3 32 41zM774 278q10 -2 21.5 8t21 38t10.5 69q1 25 -3 42.5t-10 25t-12.5 11.5t-10.5 4h-4 q-43 -1 -48 -92q-7 -101 35 -106z" />
<glyph unicode="&#xe206;" d="M500 797l-67 -45h-58q1 0 9.5 -6.5t22 -22t21.5 -32.5q17 -34 17 -67q0 -28 -3 -38q-12 -34 -19 -45q-11 -16 -31 -32.5t-38 -37.5q-26 -30 -27 -49q0 -18 10 -28q3 -4 9 -8.5t15 -11.5t17 -13q63 -52 82 -82q27 -44 19 -105q-3 -30 -24.5 -60t-56.5 -56t-88.5 -42 t-113.5 -14q-48 2 -86.5 12.5t-60 25t-36.5 29t-20 24.5l-5 10q-2 2 -4 7.5t-5 22.5t-1.5 34t12.5 41.5t32 46.5t52.5 38t62 22.5t57.5 10.5t44 4h16l2 2q0 3 -4 8q-16 19 -20.5 44.5t-1.5 41.5l4 16q-45 -6 -88 6q-6 2 -18 8t-21 11l-9 5q-2 1 -5.5 3.5t-13 10.5 t-17.5 17.5t-16 25.5t-12.5 34t-3.5 43t8 52q17 59 67.5 94t106.5 45q29 5 58 5h5zM403 190q-4 21 -32 47.5t-53 43.5l-26 17q-11 -1 -31.5 -1t-29.5 -1q-66 -6 -104 -31q-29 -19 -39 -33q-17 -23 -18 -50t9.5 -47.5t21 -34t16.5 -16.5q69 -36 132 -36q63 1 88 14 q28 15 44.5 29.5t21.5 31.5t4.5 31t-4.5 36zM281 472q2 1 6 2t14.5 6.5t19 13.5t17.5 22.5t12.5 33t1 46t-12.5 59.5q-37 110 -117 111q-9 0 -18 -1.5t-13 -3.5l-4 -1q-3 -2 -10 -5.5t-12 -6.5t-12 -9t-12 -13.5t-9.5 -19.5t-6 -27t-0.5 -37t5 -48q7 -40 25 -67t38.5 -37.5 t40.5 -15t33 -3.5zM703 652h150v-50h-150v-150h-50v150h-150v50h150v150h50v-150z" />
<glyph unicode="&#xe207;" d="M532 400q0 55 -38.5 93.5t-93.5 38.5q-17 0 -29 12t-12 29t12 29t29 12q89 0 151.5 -62.5t62.5 -151.5q0 -17 -12 -29t-29 -12q-11 0 -20.5 5.5t-15 15t-5.5 20.5zM850 645v-490h-234q-93 -82 -216 -82t-216 82h-234v490h50v80h100v-80h84q93 82 216 82t216 -82h234z M32 688v-32h41v32h-41zM11 584v-368h118q-56 83 -56 184t56 184h-118zM297 155q49 -21 102.5 -21t103.5 21q51 22 88 61q75 78 75 184t-75 184q-37 39 -88 61q-50 21 -103 21t-103 -21q-51 -22 -88 -61q-75 -78 -75 -184t75 -184q37 -39 88 -61zM789 216v368h-118 q56 -83 56 -184t-56 -184h118z" />
<glyph unicode="&#xe208;" d="M800 389v11q0 55 -14.5 107.5t-41.5 97t-64 80.5l-129 -398q-5 -14 2.5 -24.5t22.5 -10.5h196q26 66 28 137zM643 674l11 35q-111 91 -254 91h-6q-96 -2 -181 -46l30 -22l312 -226q11 -7 22.5 -3t15.5 18zM757 221h-417q-15 0 -22 -10.5t-3 -24.5l49 -151l11 -34l15 -1 h10h7q114 2 207.5 62t142.5 159zM341 4l-11 32v3l-118 362q-5 14 -16.5 17.5t-23.5 -5.5l-129 -94l-30 -21q31 -115 120 -195.5t208 -98.5zM6 332l337 245q12 9 12.5 21t-11.5 21l-132 96l-29 21q-83 -53 -132 -140t-51 -189v-7v-9q0 -12 2 -24q1 -19 4 -35z" />
<glyph unicode="&#xe209;" d="M150 650q104 0 177 -73t73 -177t-73 -177t-177 -73t-177 73t-73 177t73 177t177 73zM700 650q104 0 177 -73t73 -177t-73 -177t-177 -73t-177 73t-73 177t73 177t177 73zM700 200q83 0 141.5 58.5t58.5 141.5t-58.5 141.5t-141.5 58.5t-141.5 -58.5t-58.5 -141.5 t58.5 -141.5t141.5 -58.5z" />
<glyph unicode="&#xe20a;" d="M889 392q11 -31 11 -67t-11 -67.5t-31.5 -55.5t-50.5 -37.5t-67 -13.5q-29 0 -54 9t-47 23.5t-41 33.5q-20 19 -37 39q-19 -19 -38 -39q-19 -19 -40 -34q-20 -14 -45 -23t-55 -9q-38 0 -67.5 13.5t-51.5 36.5q-19 20 -30 50l-0.5 -1l-0.5 -1q-14 -31 -37.5 -54t-55 -35 t-66.5 -12q-34 0 -66 9q-31 10 -55 28q-22 17 -38 46q-15 28 -15 65h95q3 -32 23.5 -51t52.5 -19q19 0 34 7.5t26 19.5q10 13 15.5 29.5t5.5 33.5q0 18 -5.5 34t-16 28t-25 18.5t-34.5 6.5q-25 0 -41 -9t-30 -28h-85l46 258h261v-78h-193l-19 -106l1 -1q20 19 42 27 q22 9 50 9q34 0 61 -13t45 -34q13 -14 23 -37q10 31 30 53q21 23 50.5 36t66.5 13q30 0 56 -9t47.5 -24.5t40.5 -35.5t38 -42q17 21 36 42q19 20 41 36q22 15 47.5 24t55.5 9q37 0 66.5 -12.5t50 -35.5t31.5 -53zM480 294q13 12 25 26q-11 12 -26 26.5t-31 26.5t-34 20 t-35 8q-32 0 -51 -24.5t-19 -55.5q0 -33 19.5 -54.5t53.5 -21.5q18 0 35.5 7t32.5 18q17 11 30 24zM794.5 267.5q18.5 22.5 18.5 54.5t-20 55.5t-54 23.5q-18 0 -36 -8q-17 -8 -32 -20t-30 -26q-15 -16 -25 -27q12 -13 26 -27q14 -13 30 -24t33 -17.5t37 -6.5 q34 0 52.5 22.5z" />
<glyph unicode="&#xe20b;" d="M398 550q10 -1 30 3q31 8 45 37q6 14 7.5 29.5t1.5 74.5q0 69 -3 84q-7 32 -30 46q-36 24 -78 5q-28 -15 -37 -48q-3 -9 -4 -80q0 -64 1.5 -82t9.5 -33q18 -31 57 -36zM419 604q-7 -6 -19 -4q-10 2 -14 16q-2 7 -2 78t2 78q7 21 25 16q12 -3 15 -19q2 -8 2 -80 q0 -59 -1 -70t-8 -15zM552 550q27 -3 54 23l7 7v-13q0 -11 2 -13q3 -1 24 -1t24 1l4 1v139v140l-27 -1h-26v-107l-1 -106l-9 -9q-14 -14 -23 -11q-5 1 -6 15.5t-2 105.5v112h-27h-27v-122q0 -97 1 -115t6 -29q7 -14 26 -17zM207 555q1 -1 27 -1.5t30 0.5q2 1 2 77v75l4 13 q1 2 5 16t7 23q2 8 6 22t5 17q38 118 38 127l1 4h-27q-31 0 -32 -1q-9 -31 -23 -89q-3 -11 -7 -24t-5 -18l-2 -6l-2 9q-3 9 -7.5 26.5t-8.5 33.5q-19 66 -19 69h-59q-2 0 -2 -2q1 -5 36 -117q8 -30 18 -55q17 -48 16 -74q-1 -12 -1.5 -67.5t0.5 -57.5zM309 -50q138 -2 243 1 q74 2 139 6q1 0 9 0.5t13 0.5q36 3 58 19q31 25 42 80q10 51 11 142q1 69 -4 132q-6 73 -21 104q-25 48 -74 54q-46 5 -214 9q-116 3 -269.5 -1t-178.5 -10q-20 -5 -38 -23q-32 -31 -38 -91q-18 -141 -1 -292q7 -60 33 -91q19 -24 48 -29q16 -4 164 -9q26 -2 78 -2zM290 48 q-33 -12 -45 11q-5 9 -6 27.5t-1 113.5v115h23h23v-109q0 -109 3 -113q4 -8 17 -5q4 1 16 11l10 10v103v103h23h23v-133v-134h-23h-23v14q0 14 -2 14t-9 -7q-12 -14 -29 -21zM535 47q-28 -7 -53 16l-11 9q-2 0 -2 -12v-12h-23h-23v180v181h23h23v-59l1 -59q3 0 11 10 q16 17 36 18q35 3 44 -38q2 -9 2 -99q0 -73 -1 -87t-7 -28q-7 -16 -20 -20zM505 93q-12 -8 -29 4l-4 4v81v82l4 3q24 19 35 -2q2 -5 3 -81q0 -76 -2 -81q-3 -7 -7 -10zM699 48q-25 -7 -49 3t-35 32q-6 12 -7 25t-1 74q0 74 2 83q9 37 45 50q25 9 51 -1t36 -32q8 -16 9 -67 l1 -40l-49 -1h-49l-1 -27q0 -48 12 -56q15 -10 30 1q8 8 9 31v16h24h24l-1 -18q0 -20 -3 -26q-9 -36 -48 -47zM652 215q1 -2 26 -2h25v23q0 21 -4 29q-5 12 -21 12q-19 0 -23 -18q-1 -4 -2.5 -23t-0.5 -21zM167 204v-155l-26 -1q-25 0 -25 2q-1 1 -1 155l-1 155h-28h-29v25 v24l84 -1h85v-24v-24h-29h-29z" />
<glyph unicode="&#xe20c;" d="M400 850q186 0 318 -132t132 -318t-132 -318t-318 -132t-318 132t-132 318t132 318t318 132zM527 484h-77v46q0 18 5.5 24.5t28.5 6.5h43l-1 89h-68q-59 0 -85 -28t-26 -83v-55h-51v-77h51v-257h103v257h68z" />
<glyph unicode="&#xe20d;" d="M-50 850h900v-900h-900v900zM527 484h-77v46q0 18 5.5 24.5t28.5 6.5h43l-1 89h-68q-59 0 -85 -28t-26 -83v-55h-51v-77h51v-257h103v257h68z" />
<glyph unicode="&#xe20e;" d="M400 850q186 0 318 -132t132 -318t-132 -318t-318 -132t-318 132t-132 318t132 318t318 132zM603 500q30 22 51 53q-28 -13 -58 -16q33 19 44 56q-30 -18 -64 -25q-30 32 -74 32q-42 0 -71.5 -29.5t-29.5 -71.5q0 -12 3 -23q-41 2 -80 15.5t-71 36.5t-57 53 q-14 -23 -14 -50q0 -54 45 -84q-24 0 -46 12v-1q0 -36 23 -64t58 -35q-13 -3 -26 -3q-10 0 -19 1q9 -30 35 -49.5t59 -20.5q-55 -43 -125 -43q-13 0 -24 1q70 -45 154 -45q67 0 123 26t91 68t54.5 92t19.5 101q0 8 -1 13z" />
<glyph unicode="&#xe20f;" d="M-50 850h900v-900h-900v900zM603 500q30 22 51 53q-28 -13 -58 -16q33 19 44 56q-30 -18 -64 -25q-30 32 -74 32q-42 0 -71.5 -29.5t-29.5 -71.5q0 -12 3 -23q-41 2 -80 15.5t-71 36.5t-57 53q-14 -23 -14 -50q0 -54 45 -84q-24 0 -46 12v-1q0 -36 23 -64t58 -35 q-13 -3 -26 -3q-10 0 -19 1q9 -30 35 -49.5t59 -20.5q-55 -43 -125 -43q-13 0 -24 1q70 -45 154 -45q67 0 123 26t91 68t54.5 92t19.5 101q0 8 -1 13z" />
<glyph unicode="&#xe210;" d="M309 284h18t20 1q7 -5 17.5 -12t29.5 -25t22 -30q3 -17 3 -30t-10.5 -26t-33.5 -25q-16 -8 -55 -8t-82 22q-4 2 -10.5 10.5t-13 21.5t-6 29.5t10.5 31.5q7 8 25 20q23 16 65 20zM303 577q50 0 73 -69q9 -29 9 -49.5t-7.5 -33.5t-15.5 -20t-15 -9l-7 -2q-3 -1 -8.5 -1 t-20 2.5t-26.5 9t-23.5 23.5t-15.5 42q-3 18 -3.5 33t1.5 25t5 17t8 12t8.5 7.5t9 5t6.5 3.5t3 1.5t7.5 1.5t11.5 1zM400 850q92 0 175 -35.5t143.5 -96t96 -143.5t35.5 -175q0 -73 -22.5 -142t-64.5 -124t-97 -97t-124 -64.5t-142 -22.5q-92 0 -175 35.5t-143.5 96 t-96 143.5t-35.5 175t35.5 175t96 143.5t143.5 96t175 35.5zM432 525q-2 5 -5.5 9.5t-6.5 8t-6 6t-6 4.5t-5 3l-3 1.5t-2 0.5h37l42 33l-141 9h-3q-18 0 -36 -3q-35 -7 -66.5 -28.5t-42.5 -58.5q-9 -41 -0.5 -67t23.5 -38l15 -11q21 -13 30 -15q12 -4 25.5 -5t21.5 0l8 1 q-2 -4 -3 -11t1.5 -24t12.5 -29l1 -6q-11 0 -28.5 -1t-56.5 -12.5t-60 -33.5t-26 -46t0 -37l5 -12q0 -1 0.5 -2.5t3.5 -5.5l6 -8t9 -9.5t13 -10t17 -9.5t21.5 -8.5t27 -6t32.5 -3.5q73 -2 122.5 32.5t54.5 74.5q4 38 -12 66q-12 19 -51 51q-5 4 -14 10.5t-12 10.5 q-6 6 -6 17q0 12 17 31q11 13 23.5 23t19.5 21q4 6 11 27q3 7 3 24q0 16 -11 37zM750 450v50h-100v100h-50v-100h-100v-50h100v-100h50v100h100z" />
<glyph unicode="&#xe211;" d="M303 577q50 0 73 -69q9 -29 9 -49.5t-7.5 -33.5t-15.5 -20t-15 -9l-7 -2q-3 -1 -8.5 -1t-20 2.5t-26.5 9t-23.5 23.5t-15.5 42q-3 18 -3.5 33t1.5 25t5 17t8 12t8.5 7.5t9 5t6.5 3.5t3 1.5t7.5 1.5t11.5 1zM309 284h10.5h14t13.5 1q7 -5 17.5 -12t29.5 -25t22 -30 q3 -17 3 -30t-10.5 -26t-33.5 -25q-16 -8 -55 -8t-82 22q-4 2 -10.5 10.5t-13 21.5t-6 29.5t10.5 31.5q7 8 25 20q23 16 65 20zM-50 850h900v-900h-900v900zM432 525q-2 5 -5.5 9.5t-6.5 8t-6 6t-6 4.5t-5 3l-3 1.5t-2 0.5h37l42 33l-141 9h-3q-18 0 -36 -3 q-35 -7 -66.5 -28.5t-42.5 -58.5q-9 -41 -0.5 -67t23.5 -38l15 -11q21 -13 30 -15q12 -4 25.5 -5t21.5 0l8 1q-2 -4 -3 -11t1.5 -24t12.5 -29l1 -6q-11 0 -28.5 -1t-56.5 -12.5t-60 -33.5t-26 -46t0 -37l5 -12q0 -1 0.5 -2.5t3.5 -5.5l6 -8t9 -9.5t13 -10t17 -9.5t21.5 -8.5 t27 -6t32.5 -3.5q73 -2 122.5 32.5t54.5 74.5q4 38 -12 66q-12 19 -51 51q-5 4 -14 10.5t-12 10.5q-6 6 -6 17q0 12 17 31q11 13 23.5 23t19.5 21q4 6 11 27q3 7 3 24q0 16 -11 37zM750 450v50h-100v100h-50v-100h-100v-50h100v-100h50v100h100z" />
<glyph unicode="&#xe212;" d="M400 850q186 0 318 -132t132 -318t-132 -318t-318 -132t-318 132t-132 318t132 318t318 132zM457 230q89 0 145 72.5t56 183.5q0 86 -66.5 150t-169.5 64q-64 0 -116.5 -21.5t-84.5 -55.5t-49 -74.5t-17 -81.5q0 -51 19.5 -89t56.5 -54q15 -6 19 9q1 3 4 15t4 15 q3 11 -6 21q-24 29 -24 73q0 74 50.5 126.5t132.5 52.5q49 0 85 -18.5t53.5 -50.5t17.5 -74q0 -32 -5.5 -62t-16 -54.5t-25 -43t-33 -28.5t-39.5 -10q-29 0 -47 21t-12 51q4 14 10.5 35t11 36t8 32t3.5 29q0 24 -13 40t-37 16q-30 0 -51 -27.5t-21 -69.5q0 -9 1.5 -19 t3 -16.5t3.5 -12t3 -8.5l1 -3q-41 -173 -48 -203q-13 -57 -1 -142q0 -3 3.5 -4t5.5 2q52 69 67 122l26 103q10 -19 36 -33t56 -14z" />
<glyph unicode="&#xe213;" d="M-50 850h900v-900h-900v900zM457 230q89 0 145 72.5t56 183.5q0 86 -66.5 150t-169.5 64q-64 0 -116.5 -21.5t-84.5 -55.5t-49 -74.5t-17 -81.5q0 -51 19.5 -89t56.5 -54q15 -6 19 9q1 3 4 15t4 15q3 11 -6 21q-24 29 -24 73q0 74 50.5 126.5t132.5 52.5q49 0 85 -18.5 t53.5 -50.5t17.5 -74q0 -32 -5.5 -62t-16 -54.5t-25 -43t-33 -28.5t-39.5 -10q-29 0 -47 21t-12 51q4 14 10.5 35t11 36t8 32t3.5 29q0 24 -13 40t-37 16q-30 0 -51 -27.5t-21 -69.5q0 -9 1.5 -19t3 -16.5t3.5 -12t3 -8.5l1 -3q-41 -173 -48 -203q-13 -57 -1 -142 q0 -3 3.5 -4t5.5 2q52 69 67 122l26 103q10 -19 36 -33t56 -14z" />
<glyph unicode="&#xe214;" d="M466 187q116 0 189.5 94.5t73.5 239.5q0 54 -22.5 105t-62 89.5t-98 62t-126.5 23.5q-83 0 -151.5 -28t-110.5 -73t-64.5 -98t-22.5 -106q0 -66 25.5 -116.5t74.5 -70.5q19 -8 24 13q1 3 3 11l4 16l3 12q4 14 -7 27q-32 38 -32 96q0 96 66.5 165t173.5 69q96 0 150 -52.5 t54 -135.5q0 -108 -43.5 -183.5t-111.5 -75.5q-39 0 -62.5 28t-14.5 66q4 19 12.5 46.5t14.5 47t11 42t5 37.5q0 32 -17 53t-49 21q-39 0 -66.5 -36.5t-27.5 -90.5q0 -20 4 -39.5t8 -28.5l4 -9q-54 -227 -63 -266q-17 -69 -2 -186q1 -4 5 -5t7 2l6.5 9t13.5 19t17.5 26 t19.5 32t17.5 36t13.5 38l34 134q13 -25 47 -42.5t73 -17.5z" />
<glyph unicode="&#xe215;" d="M40 400q0 76 31 147l172 -471q-60 29 -106 77.5t-71.5 112.5t-25.5 134zM406 369l111 -304q1 -2 3 -5q-58 -20 -120 -20q-52 0 -102 15zM643 418q0 -28 -27 -116l-36 -120l-130 387l41 3q14 2 13 16.5t-15 13.5q-59 -5 -96 -5l-95 5q-9 0 -13.5 -7t-1.5 -14.5t12 -8.5 q19 -2 38 -3l56 -154l-79 -236l-131 390l42 3q14 2 13 16.5t-16 13.5q-58 -5 -96 -5q-9 0 -23 1q49 74 128.5 118t172.5 44q140 0 243 -95q-3 1 -5 1q-17 0 -31 -9t-21.5 -24t-7.5 -31q0 -28 32 -78q2 -4 3 -7q30 -52 30 -99zM716 573q44 -81 44 -173q0 -98 -48.5 -180.5 t-130.5 -130.5l110 318q27 68 27 129q0 19 -2 37zM400 850q92 0 175 -35.5t143.5 -96t96 -143.5t35.5 -175q0 -73 -22.5 -142t-64.5 -124t-97 -97t-124 -64.5t-142 -22.5q-61 0 -119.5 16t-108 45t-91 70.5t-70.5 91t-45 108t-16 119.5q0 92 35.5 175t96 143.5t143.5 96 t175 35.5zM400 -5q110 0 203 54.5t147.5 147.5t54.5 203t-54.5 203t-147.5 147.5t-203 54.5t-203 -54.5t-147.5 -147.5t-54.5 -203t54.5 -203t147.5 -147.5t203 -54.5z" />
<glyph unicode="&#xe216;" d="M50 400q0 75 30 142l167 -457q-89 43 -143 128t-54 187zM636 418q0 -29 -26 -114l-35 -116l-127 376l40 3q14 2 13 16t-15 13q-57 -4 -93 -4l-92 4q-4 1 -7.5 -0.5t-5 -4t-2.5 -5.5t-0.5 -6.5t2 -6t4 -4t6.5 -2.5q18 -2 37 -3l55 -149l-77 -230l-127 379l40 3q14 2 13 16 t-16 13q-56 -4 -93 -4h-22q47 73 124.5 115.5t167.5 42.5q136 0 236 -92h-1.5h-2.5q-25 0 -42 -18.5t-17 -43.5q0 -4 0.5 -8.5t1 -8t2.5 -8.5l3 -7.5t4 -8t4 -8t4.5 -8.5t4.5 -7.5t5.5 -8.5t4.5 -9q29 -50 29 -96zM406 369l108 -294q1 -3 2 -5q-56 -20 -116 -20 q-50 0 -99 14zM576 97l107 310q27 66 27 125q0 18 -3 36q43 -78 43 -168q0 -95 -47.5 -175.5t-126.5 -127.5zM-50 850h900v-900h-900v900zM400 0q108 0 200.5 53.5t146 146t53.5 200.5q0 81 -31.5 155t-85.5 128t-128 85.5t-155 31.5q-108 0 -200.5 -53.5t-146 -146 t-53.5 -200.5t53.5 -200.5t146 -146t200.5 -53.5z" />
<glyph unicode="&#xe217;" d="M400 800q165 0 282.5 -117.5t117.5 -282.5t-117.5 -282.5t-282.5 -117.5t-282.5 117.5t-117.5 282.5t117.5 282.5t282.5 117.5zM40 400q0 -105 56 -192t147 -132l-171 470q-32 -69 -32 -146zM400 40q61 0 119 21q-1 2 -2 5l-111 303l-108 -314q50 -15 102 -15zM450 569 l130 -387l35 120q28 88 28 116q0 47 -30 99q-1 3 -4 7q-31 50 -31 78q0 25 17 44.5t43 19.5l5 -1q-103 95 -243 95q-93 0 -172 -44t-128 -118q10 -1 23 -1l96 5q14 1 15 -13.5t-13 -16.5q-20 -2 -41 -3l131 -390l78 236l-56 154l-37 3q-10 1 -13 8.5t1.5 14.5t13.5 7 q59 -5 95 -5l95 5q15 1 16 -13.5t-13 -16.5q-20 -2 -41 -3zM716 573q2 -18 2 -37q0 -61 -27 -129l-110 -318q81 48 130 130.5t49 180.5q0 92 -44 173z" />
<glyph unicode="&#xe218;" d="M400 850q186 0 318 -132t132 -318t-132 -318t-318 -132t-318 132t-132 318t132 318t318 132zM569 155v87q-41 -27 -83 -27q-23 0 -41 10q-14 8 -19 22t-5 62v141h130v86h-130v139h-79q-5 -43 -19 -70.5t-37 -46.5q-23 -20 -55 -31v-77h60v-193q0 -38 8 -58t29 -37 q20 -18 49 -28q29 -9 67 -9q33 0 61.5 6.5t63.5 23.5z" />
<glyph unicode="&#xe219;" d="M-50 850h900v-900h-900v900zM569 155v87q-41 -27 -83 -27q-23 0 -41 10q-14 8 -19 22t-5 62v141h130v86h-130v139h-79q-5 -43 -19 -70.5t-37 -46.5q-23 -20 -55 -31v-77h60v-193q0 -38 8 -58t29 -37q20 -18 49 -28q29 -9 67 -9q33 0 61.5 6.5t63.5 23.5z" />
<glyph unicode="&#xe21a;" d="M306 335h178q12 0 20.5 -8.5t8.5 -20.5t-8.5 -20t-20.5 -8h-178q-11 0 -19.5 8t-8.5 20t8.5 20.5t19.5 8.5zM396 456h-90q-11 0 -19.5 8.5t-8.5 20t8.5 20t19.5 8.5h90q12 0 20.5 -8.5t8.5 -20.5q0 -7 -4 -14t-10.5 -10.5t-14.5 -3.5zM400 850q92 0 175 -35.5t143.5 -96 t96 -143.5t35.5 -175q0 -73 -22.5 -142t-64.5 -124t-97 -97t-124 -64.5t-142 -22.5q-92 0 -175 35.5t-143.5 96t-96 143.5t-35.5 175t35.5 175t96 143.5t143.5 96t175 35.5zM642 301v118q0 18 -7 27.5t-26 9.5h-22q-15 0 -24 8t-9 20v14q0 52 -46.5 98.5t-96.5 46.5h-105 q-65 0 -110.5 -45.5t-45.5 -111.5v-187q0 -60 44 -104.5t99 -44.5h198q61 0 106 44.5t45 106.5z" />
<glyph unicode="&#xe21b;" d="M-50 850h900v-900h-900v900zM646 304v119q0 18 -7 27t-26 9h-22q-10 0 -18 4t-11.5 10.5t-3.5 14.5v14q0 52 -46.5 98t-96.5 46h-105q-65 0 -110.5 -45.5t-45.5 -110.5v-187q0 -61 44 -105t99 -44h198q61 0 106 44.5t45 105.5zM310 339h178q8 0 14.5 -4t10.5 -10.5 t4 -14.5q0 -12 -8.5 -20.5t-20.5 -8.5h-178q-7 0 -13.5 4t-10.5 10.5t-4 14.5q0 12 8.5 20.5t19.5 8.5zM400 459h-90q-11 0 -19.5 8.5t-8.5 20.5t8.5 20.5t19.5 8.5h90q12 0 20.5 -8.5t8.5 -20.5q0 -8 -4 -14.5t-10.5 -10.5t-14.5 -4z" />
<glyph unicode="&#xe21c;" d="M672 484h31q26 0 36.5 -13t10.5 -39v-168q0 -43 -17.5 -83t-46.5 -68.5t-68.5 -45.5t-82.5 -17h-281q-79 0 -141.5 63t-62.5 149v266q0 93 64.5 157.5t158.5 64.5h148q71 0 137 -65.5t66 -139.5v-20q0 -17 13 -29t35 -12zM400 566h-127q-17 0 -29 -12t-12 -29 q0 -11 5.5 -20.5t15 -15t20.5 -5.5h127q11 0 20.5 5.5t15 15t5.5 20.5q0 17 -12 29t-29 12zM273 231h252q17 0 29 12t12 29t-12 29t-29 12h-252q-17 0 -29 -12t-12 -29t12 -29t29 -12z" />
<glyph unicode="&#xe21d;" d="M-50 850h900v-900h-900v900zM571 278q114 147 118 231q5 113 -84 116q-121 4 -163 -136q22 10 43 10q44 0 39 -50q-3 -30 -39.5 -87t-54.5 -57q-23 0 -43 88q-6 26 -23 132q-16 99 -83 93q-29 -3 -86 -52q-39 -36 -84 -75l27 -36q39 28 46 28q29 0 55 -94q9 -32 25 -90.5 t22 -80.5q35 -93 85 -93q82 0 200 153z" />
<glyph unicode="&#xe21f;" d="M400 850q186 0 318 -132t132 -318t-132 -318t-318 -132t-318 132t-132 318t132 318t318 132zM558 278q114 147 118 231q5 113 -84 116q-120 4 -163 -136q23 10 43 10q44 0 39 -50q-2 -30 -38.5 -87t-54.5 -57q-24 0 -43 88q-7 25 -23 132q-16 99 -83 93q-29 -3 -86 -52 q-41 -37 -84 -75l27 -36q39 28 45 28q30 0 56 -94q7 -25 14.5 -53.5t17 -63.5t14.5 -54q35 -93 86 -93q81 0 199 153z" />
<glyph unicode="&#xe220;" d="M385 750h-160q-13 0 -17 -4t-4 -17v-658q0 -13 4 -17t17 -4h168q43 0 77 4t68.5 16.5t57 34t36.5 58t14 85.5q0 42 -12.5 74t-34 50.5t-40.5 28.5t-41 16q17 8 27 13.5t26.5 19.5t26 28.5t17.5 39t8 53.5q0 47 -16 81.5t-39 53t-57.5 29t-62.5 13t-63 2.5zM373 461h-31 v182h43q100 0 100 -86q0 -29 -8.5 -49t-25 -30t-35 -13.5t-43.5 -3.5zM379 157h-37v197h39q29 0 49 -3.5t39.5 -13t29 -30t9.5 -51.5q0 -25 -7 -43.5t-18 -29t-28.5 -16.5t-35 -8t-40.5 -2z" />
<glyph unicode="&#xe221;" d="M472 60l8 31q3 14 3 16q0 6 -8 6h-75l122 574h72q10 0 12 10l9 31q3 14 3 16q0 6 -9 6h-269q-10 0 -13 -10l-8 -31q-3 -14 -3 -16q0 -6 8 -6h86l-122 -574h-82q-10 0 -12 -10l-9 -31q-3 -14 -3 -16q0 -6 8 -6h269q10 0 13 10z" />
<glyph unicode="&#xe222;" d="M393 100q-53 0 -96 16t-76.5 49t-52 90t-18.5 134v361h100v-364q0 -215 146 -215q154 0 154 215v364h100v-358q0 -149 -70 -220.5t-187 -71.5zM150 50h500v-50h-500v50z" />
<glyph unicode="&#xe223;" d="M719 400l127 -350h-52l-37 105h-137l-38 -105h-3h-46h-58l-73 210h-274l-76 -210h-98l264 700h107l232 -638l108 288h54zM156 337h219l-108 309zM634 193h110l-54 155z" />
<glyph unicode="&#xe224;" d="M451 149q0 70 42 123q15 20 35 35q55 42 123 42q82 0 141 -58.5t59 -141.5q0 -68 -43 -122q-17 -21 -35 -36q-54 -43 -122 -43q-83 0 -141.5 59t-58.5 142zM564 271l208 -209q29 40 29 87q0 62 -44 106t-106 44q-50 0 -87 -28zM501 149q0 -62 44 -106t106 -44q46 0 87 28 l-210 209q-27 -38 -27 -87zM441 812l17 -106q8 -54 28 -167t29 -173q-39 -25 -69 -69t-41 -85h-63l8 29q42 4 51 15t4 46q-13 103 -14 110h-177q-12 -33 -51 -109q-17 -30 -7.5 -45t60.5 -21l-8 -25h-207l8 25q45 7 63 21t55 78l266 464zM239 462h145l-30 200h-2 q-18 -24 -56 -99t-57 -101z" />
<glyph unicode="&#xe225;" d="M0 550v50h800v-50h-800zM0 450v50h800v-50h-800zM0 350v50h800v-50h-800zM0 700h800v-50h-800v50zM0 250v50h800v-50h-800zM0 150v50h800v-50h-800z" />
<glyph unicode="&#xe226;" d="M150 550v50h500v-50h-500zM0 450v50h800v-50h-800zM150 350v50h500v-50h-500zM0 700h800v-50h-800v50zM0 250v50h800v-50h-800zM150 150v50h500v-50h-500z" />
<glyph unicode="&#xe227;" d="M0 550v50h500v-50h-500zM0 450v50h800v-50h-800zM0 350v50h500v-50h-500zM0 700h800v-50h-800v50zM0 250v50h800v-50h-800zM0 150v50h500v-50h-500z" />
<glyph unicode="&#xe228;" d="M800 550v50h-500v-50h500zM800 450v50h-800v-50h800zM800 350v50h-500v-50h500zM800 700h-800v-50h800v50zM800 250v50h-800v-50h800zM800 150v50h-500v-50h500z" />
<glyph unicode="&#xe229;" d="M100 600v100h-100v-100h100zM800 650v50h-600v-50h600zM100 450v100h-100v-100h100zM800 500v50h-600v-50h600zM100 300v100h-100v-100h100zM800 350v50h-600v-50h600zM100 150v100h-100v-100h100zM800 200v50h-600v-50h600z" />
<glyph unicode="&#xe22a;" d="M800 550v50h-400v-50h400zM800 450v50h-400v-50h400zM800 350v50h-400v-50h400zM800 700h-800v-50h800v50zM800 250v50h-400v-50h400zM800 150v50h-800v-50h800zM100 275v300l200 -150z" />
<glyph unicode="&#xe22b;" d="M800 550v50h-400v-50h400zM800 450v50h-400v-50h400zM800 350v50h-400v-50h400zM800 700h-800v-50h800v50zM800 250v50h-400v-50h400zM800 150v50h-800v-50h800zM300 275v300l-200 -150z" />
<glyph unicode="&#xe22c;" d="M551 600v-50h-250v50h250zM301 450v50h500v-50h-500zM551 400v-50h-250v50h250zM301 700h500v-50h-500v50zM301 250v50h500v-50h-500zM200 600h-100v-350h100l-125 -150l-126 150h101v350h-101l126 150zM551 200v-50h-250v50h250z" />
<glyph unicode="&#xe22d;" d="M50 550v200h200v-200h-200zM300 550v200h200v-200h-200zM550 750h200v-200h-200v200zM50 300v200h200v-200h-200zM300 300v200h200v-200h-200zM550 300v200h200v-200h-200zM50 50v200h200v-200h-200zM300 50v200h200v-200h-200zM550 50v200h200v-200h-200z" />
<glyph unicode="&#xe22e;" d="M50 550v200h200v-200h-200zM50 300v200h200v-200h-200zM50 50v200h200v-200h-200zM750 700v50h-400v-50h400zM750 600v50h-400v-50h400zM750 500v50h-400v-50h400zM750 400v50h-400v-50h400zM750 300v50h-400v-50h400zM750 200v50h-400v-50h400zM750 100v50h-400v-50h400 z" />
<glyph unicode="&#xe22f;" d="M0 100v50h150v-50h-150zM250 750h550v-50h-550v50zM0 550v50h150v-50h-150zM0 400v50h150v-50h-150zM0 250v50h150v-50h-150zM0 700v50h150v-50h-150zM250 550v50h550v-50h-550zM250 400v50h550v-50h-550zM250 250v50h550v-50h-550zM250 100v50h550v-50h-550z" />
<glyph unicode="&#xe230;" d="M0 750h800v-50h-800v50zM0 550v50h800v-50h-800zM0 400v50h800v-50h-800zM0 250v50h800v-50h-800zM0 100v50h800v-50h-800z" />
<glyph unicode="&#xe231;" d="M800 400v350h-800v-350h800zM150 250v50h-150v-50h150zM150 100v50h-150v-50h150zM800 250v50h-550v-50h550zM800 100v50h-550v-50h550zM150 100v50h-150v-50h150zM800 100v50h-550v-50h550z" />
<glyph unicode="&#xe232;" d="M200 200v400h400v-400h-400zM650 200v400h50v-400h-50zM750 700h50v-600h-50v600zM100 200v400h50v-400h-50zM0 100v600h50v-600h-50z" />
<glyph unicode="&#xe239;" d="M750 100v600h-700v-600h700z" />
<glyph unicode="&#xe23a;" d="M50 700h700v-450h-700v450zM50 100v50h700v-50h-700z" />
<glyph unicode="&#xe23b;" d="M0 450v250h250v-250h-250zM350 500v50h450v-50h-450zM0 100v250h250v-250h-250zM350 250v50h450v-50h-450zM350 100v50h450v-50h-450zM350 700h450v-50h-450v50z" />
<glyph unicode="&#xe23c;" d="M300 550v-300h-300v300h300zM400 450v50h400v-50h-400zM400 300v50h400v-50h-400zM0 700h800v-50h-800v50zM0 100v50h800v-50h-800z" />
<glyph unicode="&#xe23d;" d="M0 250v300h800v-300h-800zM0 100v50h800v-50h-800zM0 700h800v-50h-800v50z" />
<glyph unicode="&#xe23e;" d="M500 250v300h300v-300h-300zM400 350v-50h-400v50h400zM400 500v-50h-400v50h400zM800 100h-800v50h800v-50zM800 700v-50h-800v50h800z" />
<glyph unicode="&#xe23f;" d="M400 700h400v-550h-400v550zM200 350v150h150v-150h-150zM200 150v150h150v-150h-150zM200 550v150h150v-150h-150zM0 350v150h150v-150h-150zM0 150v150h150v-150h-150zM0 550v150h150v-150h-150z" />
<glyph unicode="&#xe240;" d="M0 550v150h150v-150h-150zM200 550v150h150v-150h-150zM0 350v150h150v-150h-150zM200 350v150h150v-150h-150zM400 700h150v-150h-150v150zM400 350v150h150v-150h-150zM0 150v150h150v-150h-150zM200 150v150h150v-150h-150zM400 150v150h150v-150h-150zM600 700h150 v-150h-150v150zM600 350v150h150v-150h-150zM600 150v150h150v-150h-150z" />
<glyph unicode="&#xe241;" d="M50 450v250h200v-250h-200zM300 350v350h200v-350h-200zM550 700h200v-150h-200v150zM50 100v300h200v-300h-200zM300 100v200h200v-200h-200zM550 100v400h200v-400h-200z" />
<glyph unicode="&#xe242;" d="M50 100v150h300v-150h-300zM450 500v-200h-400v200h400zM250 700v-150h-200v150h200zM400 100v150h350v-150h-350zM500 300v200h250v-200h-250zM300 700h450v-150h-450v150z" />
<glyph unicode="&#xe243;" d="M50 700h700v-250h-700v250zM50 100v250h700v-250h-700z" />
<glyph unicode="&#xe244;" d="M0 700h800v-600h-800v600zM300 200l300 200l-300 200v-400z" />
<glyph unicode="&#xe245;" d="M650 750v-550h-650v550h650zM600 250v450h-550v-450h550zM700 500h100v-450h-600v100h500v350z" />
<glyph unicode="&#xe246;" d="M0 750h800v-200h-800v200zM750 600v100h-700v-100h700zM0 50v450h300v-450h-300zM50 450v-350h200v350h-200zM350 50v450h450v-450h-450zM400 450v-350h350v350h-350z" />
<glyph unicode="&#xe247;" d="M350 450v300h-300v-300h300zM750 450v300h-300v-300h300zM350 50v300h-300v-300h300zM750 50v300h-300v-300h300z" />
<glyph unicode="&#xe248;" d="M138 612l36 -35l-177 -177l177 -177l-36 -35l-212 212zM662 612l212 -212l-212 -212l-36 35l177 177l-177 177zM285 68l181 677l49 -13l-181 -677z" />
<glyph unicode="&#xe249;" d="M400 850q186 0 318 -132t132 -318t-132 -318t-318 -132t-318 132t-132 318t132 318t318 132zM400 0q81 0 155 31.5t128 85.5t85.5 128t31.5 155q0 108 -53.5 200.5t-146 146t-200.5 53.5q-165 0 -282.5 -117.5t-117.5 -282.5t117.5 -282.5t282.5 -117.5zM440 509 q-48 0 -75.5 -31t-27.5 -78q0 -25 8 -45.5t22 -34.5t32.5 -21t40.5 -7q36 0 67 13l11 -63q-37 -17 -95 -17q-51 0 -90.5 21t-61 60t-21.5 91q0 77 50.5 127.5t136.5 50.5q47 0 82 -15l-15 -64q-26 13 -64 13z" />
<glyph unicode="&#xe24c;" d="M400 800v-150h-50v150h-150l175 200l175 -200h-150zM400 650h300v-650h-650v650h300v-400h50v400z" />
<glyph unicode="&#xe24d;" d="M350 300v500h-150l175 200l175 -200h-150v-500h-50zM500 650h200v-650h-650v650h200v-50h-150v-550h550v550h-150v50z" />
<glyph unicode="&#xe24f;" d="M356 90v88h44v-88h89l-111 -134l-111 134h89zM666 528q29 -7 53.5 -23.5t42.5 -38.5t28 -50.5t10 -59.5q0 -48 -24 -89t-65 -65t-89 -24h-222v223h-44v-223h-178q-74 0 -126 52.5t-52 126t52 125.5t126 52q0 74 52 126t126 52q75 0 127 -55q25 10 50 10q56 0 95 -39 t39 -94q0 -1 -0.5 -3t-0.5 -3z" />
<glyph unicode="&#xe250;" d="M746 560q6 136 -101 140q-145 4 -196 -164q26 12 51 12q53 0 47 -60q-3 -36 -47 -105t-65 -69q-29 0 -52 106q-8 32 -28 160q-19 119 -100 111q-35 -3 -103 -63q-49 -43 -102 -90l33 -43q47 33 54 33q36 0 67 -112q37 -133 57 -206q42 -113 103 -113q98 0 240 185 q137 177 142 278z" />
<glyph unicode="&#xe251;" d="M-50 -50v112l492 147l-139 285q26 6 58 11t93 7t113.5 -5.5t107 -34.5t86.5 -72l-190 -48l-59 128h-165l130 -262l373 115v-383h-900zM172 452l80 -176l-179 -43q-27 65 4.5 126t94.5 93zM-50 850h900v-318q-109 36 -226.5 49.5t-202 9t-155.5 -19.5l-40 83h-147l56 -121 l-1 -1q-17 -7 -36.5 -18t-37 -23t-34.5 -25t-30.5 -24.5t-24 -21t-15.5 -15.5l-6 -5v450z" />
<glyph unicode="&#xe252;" d="M350 480l130 -262l367 113q-25 -163 -151 -272t-293 -109q-97 0 -183 39t-149 108l373 112l-138 285q21 5 45.5 8.5t71 8.5t91.5 1t92.5 -13.5t89 -35t68.5 -63.5l-190 -48l-59 128h-165zM255 276l-179 -43q-27 65 4.5 126t94.5 93zM82 654l56 -121l-1 -1 q-37 -15 -83 -48t-74 -59l-27 -25q0 92 35.5 175t96 143.5t143.5 96t175 35.5q98 0 186 -40t150.5 -111t91.5 -161q-106 32 -218 44t-193.5 8t-150.5 -19l-40 83h-147z" />
<glyph unicode="&#xe253;" d="M40 800h720q11 0 20 -5.5t14.5 -14.5t5.5 -20v-720q0 -17 -11.5 -28.5t-28.5 -11.5h-720q-17 0 -28.5 11.5t-11.5 28.5v720q0 17 11.5 28.5t28.5 11.5zM774 44v278l-306 -83l-115 232h146l53 -113l169 42q-28 40 -76.5 64t-95 30.5t-101 5t-83 -6t-51.5 -9.5l123 -254 l-411 -112v-74q0 -7 5.5 -12.5t12.5 -5.5h712q5 0 9 2.5t6.5 6.5t2.5 9zM268 290l-71 156q-56 -29 -83.5 -83t-4.5 -111zM774 518v238q0 7 -5.5 12.5t-12.5 5.5h-712q-7 0 -12.5 -5.5t-5.5 -12.5v-322q63 53 138 84l-49 108h130l36 -74q237 50 493 -34z" />
<glyph unicode="&#xe254;" d="M312 452q-15 -11 -38 -11h-88v92h81q13 0 23 -2t19 -7q8 -4 13 -13t5 -23q0 -25 -15 -36zM186 382h94q28 0 46 -13q17 -13 17 -43q0 -15 -5.5 -25t-14.5 -16q-8 -6 -20 -8q-11 -3 -24 -3h-93v108zM-50 850h900v-900h-900v900zM517 574v-39h159v39h-159zM417 270 q12 21 12 51q0 37 -18 63q-18 27 -54 37q27 13 40.5 32.5t13.5 49.5q0 27 -9 45.5t-26 30t-40 16.5t-51 5h-185v-393h190q27 0 52 7t44 20q20 14 31 36zM552 276q-19 18 -19 55h205q2 33 -6 63q-8 31 -25 54q-17 24 -44 38t-63 14q-33 0 -59 -12q-27 -11 -46 -32 q-20 -19 -30.5 -47t-10.5 -60q0 -33 10 -60q11 -28 29 -48q19 -20 46 -30q28 -11 61 -11q48 0 82 22t51 74h-69q-4 -14 -21 -26t-40 -12q-33 0 -51 18zM598 441q29 0 44 -16q15 -17 18 -45h-127q0 9 3 19t11 20q7 9 19.5 15.5t31.5 6.5z" />
<glyph unicode="&#xe255;" d="M642 425q15 -17 18 -45h-127q0 9 3 19t11 20q7 9 19.5 15.5t31.5 6.5q29 0 44 -16zM312 452q-15 -11 -38 -11h-88v92h81q13 0 23 -2t19 -7q8 -4 13 -13t5 -23q0 -25 -15 -36zM186 382h94q28 0 46 -13q17 -13 17 -43q0 -15 -5.5 -25t-14.5 -16q-8 -6 -20 -8q-11 -3 -24 -3 h-93v108zM400 850q92 0 175 -35.5t143.5 -96t96 -143.5t35.5 -175q0 -73 -22.5 -142t-64.5 -124t-97 -97t-124 -64.5t-142 -22.5q-92 0 -175 35.5t-143.5 96t-96 143.5t-35.5 175t35.5 175t96 143.5t143.5 96t175 35.5zM517 574v-39h159v39h-159zM417 270q12 21 12 51 q0 37 -18 63q-18 27 -54 37q27 13 40.5 32.5t13.5 49.5q0 27 -9 45.5t-26 30t-40 16.5t-51 5h-185v-393h190q27 0 52 7t44 20q20 14 31 36zM682 222q34 22 51 74h-69q-4 -14 -21 -26t-40 -12q-33 0 -51 18q-19 18 -19 55h205q2 33 -6 63q-8 31 -25 54q-17 24 -44 38t-63 14 q-33 0 -59 -12q-27 -11 -46 -32q-20 -19 -30.5 -47t-10.5 -60q0 -33 10 -60q11 -28 29 -48q19 -20 46 -30q28 -11 61 -11q48 0 82 22z" />
<glyph unicode="&#xe256;" d="M255 640h-255v-540h262q37 0 71 9t61 28t42.5 49t15.5 71q0 51 -24 87t-74 50q36 17 55 44.5t19 67.5q0 38 -13 64q-12 25 -35 41t-55 22q-31 7 -70 7zM240 422h-121v126h112q17 0 30 -3q15 -2 26 -9q12 -7 19 -19q6 -12 6 -31q0 -34 -20 -49q-21 -15 -52 -15zM246 192 h-127v149h130q38 0 62 -18q23 -18 23 -60q0 -21 -7 -34.5t-19 -21.5t-28 -12q-16 -3 -34 -3zM622 194q-27 26 -27 76h282q4 46 -7 87q-11 42 -34 74q-24 33 -61 52t-87 19q-45 0 -82 -16q-36 -16 -63 -43q-26 -28 -41 -66q-14 -38 -14 -82q0 -45 14 -83t39 -65 q27 -28 63 -42q38 -15 84 -15q66 0 113 30t70 101h-95q-5 -18 -29 -34q-23 -17 -56 -17q-45 0 -69 24zM745 399q21 -23 25 -62h-175q1 12 5 26q4 15 15 28q10 13 27 21q17 9 43 9q41 0 60 -22zM573 604h219v-53h-219v53z" />
<glyph unicode="&#xe257;" d="M421 397q-37 -12 -71 -31t-59.5 -40.5t-46 -41t-35.5 -40t-21 -29.5l-10 -15q-77 85 -77 200v9q157 -3 307 42q14 -26 25 -51q-7 -1 -12 -3zM384 497q-145 -38 -277 -36q15 69 59 124t107 85q58 -79 111 -173zM451 350q0 1 1 1h1q45 -117 64 -227q-56 -23 -117 -23 q-103 0 -183 63q3 7 9.5 18t26.5 35t44 45.5t65.5 46.5t88.5 41zM598 623q-7 -10 -19 -23t-51 -40t-86 -45q-52 95 -112 175q34 8 70 8q113 0 198 -75zM-50 850h900v-900h-900v900zM400 50q71 0 136 28t111.5 74.5t74.5 111.5t28 136t-28 136t-74.5 111.5t-111.5 74.5 t-136 28q-95 0 -175.5 -47t-127.5 -127.5t-47 -175.5t47 -175.5t127.5 -127.5t175.5 -47zM464 471q39 15 71.5 35t52.5 38t29 28t14 17q67 -82 68 -187q-107 23 -208 10q-3 8 -7 15q-8 20 -20 44zM509 365q97 15 186 -13q-10 -62 -43.5 -114t-84.5 -86q-16 99 -58 213z" />
<glyph unicode="&#xe258;" d="M746 344q-12 -72 -51.5 -133t-98.5 -102q-19 115 -68 250q46 5 78 5.5t67 -5.5t48.5 -9t24.5 -6zM537 77q-66 -28 -137 -28q-120 0 -215 74q4 9 12 21.5t31 41t51.5 54t76.5 54.5t104 48l1 0.5l1 0.5q53 -139 75 -266zM140 165q-90 100 -90 234v11q26 0 63 1t128 13.5 t169 35.5q15 -30 28 -60q-6 -1 -14 -4q-50 -16 -97.5 -45.5t-78 -56.5t-57 -59t-36 -45.5t-15.5 -24.5zM57 471q17 81 68.5 145.5t125.5 99.5q68 -92 130 -202q-73 -20 -154 -30.5t-114 -11.5t-56 -1zM318 740q40 9 82 9q132 0 232 -88q-4 -5 -9.5 -12t-22 -22.5t-35.5 -30 t-50 -31.5t-66 -30q-62 112 -131 205zM671 621q78 -95 79 -218q-10 2 -26.5 4.5t-56 7t-75.5 4t-86 -4.5q-6 16 -7 18q-11 25 -24 51q45 18 83.5 41t62 44.5t34 33t16.5 19.5zM400 800q-108 0 -200.5 -53.5t-146 -146t-53.5 -200.5t53.5 -200.5t146 -146t200.5 -53.5 t200.5 53.5t146 146t53.5 200.5t-53.5 200.5t-146 146t-200.5 53.5zM400 850q92 0 175 -35.5t143.5 -96t96 -143.5t35.5 -175q0 -73 -22.5 -142t-64.5 -124t-97 -97t-124 -64.5t-142 -22.5q-92 0 -175 35.5t-143.5 96t-96 143.5t-35.5 175t35.5 175t96 143.5t143.5 96 t175 35.5z" />
<glyph unicode="&#xe259;" d="M400 0q165 0 282.5 117.5t117.5 282.5t-117.5 282.5t-282.5 117.5t-282.5 -117.5t-117.5 -282.5t117.5 -282.5t282.5 -117.5zM737 345q-11 -70 -49.5 -129.5t-96.5 -99.5q-19 113 -66 244q45 5 76.5 5.5t65.5 -5t47.5 -9t22.5 -6.5zM533 85q-63 -27 -133 -27 q-117 0 -210 72q5 9 12 21t30 39.5t50.5 52.5t74.5 53t101 47q1 0 3 1q51 -135 72 -259zM146 171q-88 98 -88 228v11q25 -1 61.5 0.5t125 13.5t165.5 35q15 -30 27 -58q-8 -3 -13 -5q-50 -16 -96 -44.5t-75.5 -55t-56 -57.5t-35.5 -44.5t-15 -23.5zM66 469q16 79 66 142.5 t123 97.5q66 -90 126 -198q-71 -19 -150 -29.5t-111 -11.5t-54 -1zM320 732q39 9 80 9q129 0 226 -86q-5 -7 -14.5 -17.5t-30.5 -29.5t-56.5 -40t-77.5 -36q-60 110 -127 200zM664 616q77 -93 78 -213q-123 25 -238 11q-5 10 -8 17q-10 24 -22 50q26 10 50 23t41.5 24.5 t34 24t27 22t19.5 19t12.5 14t5.5 8.5z" />
<glyph unicode="&#xe25a;" d="M424 534q-6 1 -9 10q-1 5 -1 52t1 51q4 14 16 11q8 -3 10 -13q2 -6 2 -52q-1 -39 -1.5 -46t-5.5 -11t-12 -2zM492 357q23 2 29 -25q2 -7 2 -67q0 -49 -1 -59t-5 -18q-4 -11 -13 -14q-19 -5 -36 11q-7 6 -8 6t-1 -8v-8h-15h-16v121v122h16h15v-40q0 -40 1 -40q4 3 7 7 q12 11 25 12zM488 211.5q1 4.5 1 55t-2 54.5q-3 7 -11 6q-6 0 -12 -5l-3 -2v-55v-55l3 -2q11 -9 20 -3q3 2 4 6.5zM295 418l1 -33h-20h-20v-105l-1 -105h-17q-17 0 -17.5 1t-0.5 105v104h-19h-19v16v17h56h57zM365 355h31v-90v-90h-15h-16v9q0 10 -1 10t-6 -6 q-10 -10 -20 -13q-21 -8 -30 7q-5 8 -5 95v78h16h15v-74q1 -73 2 -76q4 -6 12 -4q4 1 11 8l6 7v69v70zM633 236h16v-12q-1 -13 -2 -18q-7 -25 -32 -32q-17 -4 -33.5 2.5t-23.5 21.5q-4 8 -5 17.5t-1 49.5q0 49 2 56q6 25 30 34q7 2 15 2q31 1 44 -25q5 -12 6 -45v-27h-33 h-33v-19q-1 -32 8 -38q11 -7 20 1q5 5 6 21zM584 317q0 -3 -1 -15.5t-0.5 -14t17.5 -1.5h17v15q0 15 -2 20q-5 8 -15 8q-12 0 -16 -12zM-50 850h900v-900h-900v900zM503 687v-80q0 -86 4 -94q5 -10 17 -12q18 -2 35 15l5 5v-9q0 -8 1.5 -8.5t15.5 -0.5t16 1h3v92v92h-18 l-17 -1v-70l-1 -70l-6 -6q-8 -9 -15 -7q-4 1 -4.5 10t-0.5 69v74h-18h-17zM405 685q-18 -10 -25 -32q-1 -6 -2 -52q0 -42 1 -54t7 -22q11 -21 36 -24q10 -1 20 2q21 6 30 25q4 8 5 18t1 50q0 48 -2 55q-5 21 -20 30q-25 17 -51 4zM253 750q-2 0 -1 -2q0 -5 23 -76 q6 -21 12 -37q12 -32 10 -49v-44t0.5 -37.5t17.5 -1t19 0.5q2 0 2 50v50l2 8q2 6 8 26q7 24 8 26q24 78 25 83v3h-17q-21 0 -22 -1q-5 -21 -15 -58q-9 -33 -9 -32q-5 21 -12 46q-12 44 -13 45h-38zM700 277q1 47 -3 89q-4 49 -14 70q-17 33 -50 37t-145 6q-79 2 -182 -0.5 t-119 -7.5q-15 -4 -26 -15q-21 -20 -26 -62q-12 -100 -1 -205q5 -40 22 -61q13 -16 33 -20q13 -3 111 -6q18 -1 52 -2q79 -1 164 1q71 2 94 4q9 1 15 1q24 1 39 13q21 17 28 53q7 35 8 105z" />
<glyph unicode="&#xe25b;" d="M492 357q23 2 29 -25q2 -7 2 -67q0 -49 -1 -59t-5 -18q-4 -11 -13 -14q-19 -5 -36 11q-7 6 -8 6t-1 -8v-8h-15h-16v121v122h16h15v-40q0 -40 1 -40q4 3 7 7q12 11 25 12zM488 211q1 4 1 55t-2 55q-3 7 -11 6q-6 0 -12 -5l-3 -2v-55v-55l3 -2q11 -9 20 -3q3 2 4 6z M366 355h30v-90v-90h-15h-16v9q0 10 -1 10t-6 -6q-10 -10 -20 -13q-21 -8 -30 7q-3 6 -4 18.5t-1 76.5v78h16h15v-74q1 -73 2 -76q4 -6 12 -4q4 1 11 8l6 7v69zM295 417l1 -32h-20h-20v-105l-1 -105h-17q-17 0 -17 1q-1 1 -1 105v104h-19h-19v16v17h56zM424 534q-6 1 -9 10 q-1 5 -1 52t1 51q4 14 16 11q8 -3 10 -13q2 -6 2 -52q-1 -39 -1.5 -46t-5.5 -11t-12 -2zM633 236h16v-12q-1 -13 -2 -18q-7 -24 -32 -32q-17 -4 -33.5 2.5t-23.5 21.5q-4 8 -5 17.5t-1 49.5q0 49 2 56q6 25 30 34q8 2 15 2q31 1 44 -25q5 -12 6 -45v-27h-33h-33v-19 q-1 -32 8 -38q11 -7 20 1q5 5 6 21zM584 317q0 -3 -1 -15.5t0 -14.5q0 -1 17 -1h17v15q0 16 -2 20q-5 8 -15 8q-12 0 -16 -12zM400 850q92 0 175 -35.5t143.5 -96t96 -143.5t35.5 -175t-35.5 -175t-96 -143.5t-143.5 -96t-175 -35.5q-61 0 -119.5 16t-108 45t-91 70.5 t-70.5 91t-45 108t-16 119.5q0 92 35.5 175t96 143.5t143.5 96t175 35.5zM503 687v-80q0 -64 0.5 -76t3.5 -18q5 -10 17 -12q18 -2 35 15l5 5v-8q0 -9 1.5 -9.5t15.5 -0.5t16 1h3v92v92h-18l-17 -1v-70l-1 -70l-6 -6q-8 -9 -15 -7q-4 1 -4.5 10t-0.5 69v74h-18h-17zM405 685 q-18 -10 -25 -32q-1 -6 -2 -52q0 -42 1 -54t7 -22q11 -21 36 -24q10 -1 20 2q21 6 30 25q4 8 5 18t1 50q0 48 -2 55q-5 21 -20 30q-25 17 -51 4zM253 750h-1l1 -9q3 -8 18 -56q2 -8 4 -13q6 -21 12 -37q12 -32 10 -49v-44t0.5 -37.5t17.5 -1t19 0.5q2 0 2 50v50l2 8 q3 8 8 26q7 23 8 26q24 77 25 83v3h-17q-21 0 -22 -1q-5 -21 -15 -58q-9 -33 -9 -32q-5 21 -12 46q-12 44 -13 45h-38zM700 277q1 47 -3 89q-4 49 -14 70q-17 33 -50 37t-145 6q-79 2 -182 -0.5t-119 -7.5q-15 -4 -26 -15q-21 -20 -26 -62q-12 -100 -1 -205q5 -40 22 -61 q13 -16 33 -20q13 -3 110 -6q20 -1 53 -2q79 -1 164 1q69 2 94 4q8 1 15 1q24 1 39 13q21 17 28 53q7 35 8 105z" />
<glyph unicode="&#xe25c;" d="M553 399q0 21 -6 41h47v-218q0 -4 -2 -7t-5 -5t-7 -2h-359q-6 0 -10 4t-4 10v218h47q-5 -20 -5 -41q0 -30 12 -58.5t32 -48.5t48.5 -32t59.5 -12q62 0 107 44.5t45 106.5zM400.5 304q-39.5 0 -68 28t-28.5 67.5t28.5 67.5t68 28t68 -28t28.5 -67.5t-28.5 -67.5t-68 -28z M579 498h-68q-5 0 -9.5 4t-4.5 10v67q0 4 2 7t5.5 5t6.5 2h68q6 0 10 -4t4 -10v-67q0 -6 -4 -10t-10 -4zM-50 850h900v-900h-900v900zM650 209v382q0 16 -8 29.5t-21.5 21.5t-29.5 8h-382q-24 0 -41.5 -17.5t-17.5 -41.5v-382q0 -24 17.5 -41.5t41.5 -17.5h382 q24 0 41.5 17.5t17.5 41.5z" />
<glyph unicode="&#xe25d;" d="M400 850q186 0 318 -132t132 -318t-132 -318t-318 -132t-318 132t-132 318t132 318t318 132zM650 209v382q0 24 -17.5 41.5t-41.5 17.5h-382q-24 0 -41.5 -17.5t-17.5 -41.5v-382q0 -24 17.5 -41.5t41.5 -17.5h382q16 0 29.5 8t21.5 21.5t8 29.5zM400.5 303 q-39.5 0 -68 28.5t-28.5 67.5q0 20 8 37.5t20.5 30.5t30.5 20.5t38 7.5q39 0 67.5 -28t28.5 -67.5t-28.5 -68t-68 -28.5zM579 498h-68q-4 0 -7 1.5t-5 5t-2 7.5v67q0 6 4 10t10 4h68q3 0 5.5 -1t4.5 -3t3 -4.5t1 -5.5v-67q0 -6 -4 -10t-10 -4zM553 399q0 21 -6 41h47v-218 q0 -6 -4 -10t-10 -4h-359q-6 0 -10 4t-4 10v218h47q-6 -20 -6 -41q0 -41 20.5 -76t55.5 -55t76.5 -20t76.5 20t55.5 55t20.5 76z" />
<glyph unicode="&#xe25e;" d="M95 800h610q39 0 67 -28t28 -67v-610q0 -39 -28 -67t-67 -28h-610q-39 0 -67 28t-28 67v610q0 39 28 67t67 28zM556 687v-108q0 -10 6.5 -16.5t15.5 -6.5h108q5 0 9 2t7 5t5 7t2 9v108q0 4 -2 8t-5 7t-7 5t-9 2h-108q-9 0 -15.5 -6.5t-6.5 -15.5zM401 553 q-42 0 -77.5 -21t-56 -56t-20.5 -77t20.5 -77t56 -55.5t77.5 -20.5q64 0 109 44.5t45 108.5t-45 109t-109 45zM711 115v348h-75q8 -31 8 -64q0 -66 -32.5 -122t-88.5 -88.5t-122 -32.5q-101 0 -172 71.5t-71 171.5q0 33 8 64h-75v-348q0 -9 6.5 -15.5t16.5 -6.5h574 q9 0 16 6.5t7 15.5z" />
<glyph unicode="&#xe25f;" d="M637 427q24 0 38 -16.5t14 -39t-13 -38t-37 -15.5q-14 0 -25.5 4.5t-23 12t-20.5 16.5l-19 19q8 8 18 19q10 10 20 18q11 9 23 14q12 6 25 6zM434 407q11 -8 21 -18l19 -19l-18 -18q-10 -10 -21 -17.5t-23 -12t-25 -4.5q-24 0 -37.5 15t-13.5 38q0 21 13.5 38.5 t35.5 17.5q12 0 25 -5.5t24 -14.5zM-50 850h900v-900h-900v900zM742 326q8 22 8 47.5t-7.5 47t-22 37t-35.5 25t-47 9.5q-20 0 -38 -7t-33 -17q-16 -11 -29 -25q-13 -15 -25 -29q-13 15 -26.5 29t-28.5 24.5t-33 17.5t-40 7q-25 0 -46 -9.5t-35 -25.5t-22 -37q-7 16 -16 26 q-12 15 -31 23.5t-43 8.5q-19 0 -35 -5q-15 -6 -29 -20l-1 1l13 74h135v55h-182l-33 -181h60q10 14 21 20t29 6q14 0 24 -4.5t17.5 -13t11.5 -19.5t4 -24q0 -12 -4 -23.5t-12 -19.5q-7 -9 -17 -14q-11 -6 -24 -6q-22 0 -36.5 13.5t-17.5 35.5h-66q0 -25 10 -44.5t27 -32.5 t39 -20q22 -6 45 -6q25 0 47 8.5t38.5 24.5t26.5 38l1 1q8 -21 21 -35q15 -16 35.5 -25.5t47.5 -9.5q21 0 38.5 6.5t31.5 16.5q15 9 28 23q14 14 27 28q11 -14 26 -28q13 -14 28 -23q16 -10 33.5 -16.5t37.5 -6.5q26 0 47 9.5t35 26t22 38.5z" />
<glyph unicode="&#xe260;" d="M434 407q11 -8 21 -18l19 -19l-18 -18q-10 -10 -21 -17.5t-23 -12t-25 -4.5q-24 0 -37.5 15t-13.5 38q0 21 13.5 38.5t35.5 17.5q12 0 25 -5.5t24 -14.5zM637 427q24 0 38 -16.5t14 -39t-13 -38t-37 -15.5q-14 0 -25.5 4.5t-23 12t-20.5 16.5l-19 19q8 8 18 19 q10 10 20 18q11 9 23 14q12 6 25 6zM400 850q92 0 175 -35.5t143.5 -96t96 -143.5t35.5 -175t-35.5 -175t-96 -143.5t-143.5 -96t-175 -35.5t-175 35.5t-143.5 96t-96 143.5t-35.5 175t35.5 175t96 143.5t143.5 96t175 35.5zM720 287.5q14 16.5 22 38.5t8 47.5t-7.5 47 t-22 37t-35.5 25t-47 9.5q-20 0 -38 -7t-33 -17q-16 -11 -29 -25q-13 -15 -25 -29q-13 15 -26.5 29t-28.5 24.5t-33 17.5t-40 7q-25 0 -46 -9.5t-35 -25.5t-22 -37q-7 16 -16 26q-12 15 -31 23.5t-43 8.5q-19 0 -35 -5q-15 -6 -29 -20l-1 1l13 74h135v55h-182l-33 -181h60 q10 14 21 20t29 6q14 0 24 -4.5t17.5 -13t11.5 -19.5t4 -24q0 -12 -4 -23.5t-12 -19.5q-7 -9 -17 -14q-11 -6 -24 -6q-22 0 -36.5 13.5t-17.5 35.5h-66q0 -25 10 -44.5t27 -32.5t39 -20q22 -6 45 -6q25 0 47 8.5t38.5 24.5t26.5 38l1 1q8 -21 21 -35q15 -16 35.5 -25.5 t47.5 -9.5q21 0 38.5 6.5t31.5 16.5q15 9 28 23q14 14 27 28q11 -14 26 -28q13 -14 28 -23q16 -10 33.5 -16.5t37.5 -6.5q26 0 47 9.5t35 26z" />
<glyph unicode="&#xe261;" d="M-50 850h900v-900h-900v900zM225 250q62 0 106 44t44 106t-44 106t-106 44t-106 -44t-44 -106t44 -106t106 -44zM575 250q62 0 106 44t44 106t-44 106t-106 44t-106 -44t-44 -106t44 -106t106 -44z" />
<glyph unicode="&#xe262;" d="M400 850q186 0 318 -132t132 -318t-132 -318t-318 -132t-318 132t-132 318t132 318t318 132zM225 250q62 0 106 44t44 106t-44 106t-106 44t-106 -44t-44 -106t44 -106t106 -44zM575 250q62 0 106 44t44 106t-44 106t-106 44t-106 -44t-44 -106t44 -106t106 -44z" />
<glyph unicode="&#xe263;" d="M-50 850h900v-900h-900v900zM631 600h-462q-15 0 -23 -15l205 -176l10 -9l39 -33l39 33l10 9l205 176q-8 15 -23 15zM143 552v-323q0 -12 8 -21l179 183zM169 200h462q2 0 6 1l-177 181l-44 -38l-16 -13l-16 13l-44 38l-177 -181q4 -1 6 -1zM657 229v323l-187 -161 l179 -183q8 9 8 21z" />
<glyph unicode="&#xe264;" d="M400 850q186 0 318 -132t132 -318t-132 -318t-318 -132t-318 132t-132 318t132 318t318 132zM631 600h-462q-15 0 -23 -15l205 -176l10 -9l39 -33l39 33l10 9l205 176q-8 15 -23 15zM143 552v-323q0 -12 8 -21l179 183zM169 200h462q3 0 6 1l-177 181l-44 -38l-16 -13 l-16 13l-44 38l-177 -181q3 -1 6 -1zM657 229v323l-187 -161l179 -183q8 9 8 21z" />
<glyph unicode="&#xe265;" d="M100 350v100h150v-100h-150zM550 350v100h150v-100h-150zM-50 850h900v-900h-900v900zM750 350v100q0 21 -14.5 35.5t-35.5 14.5h-200q-21 0 -35.5 -14.5t-14.5 -35.5h-100q0 21 -14.5 35.5t-35.5 14.5h-200q-21 0 -35.5 -14.5t-14.5 -35.5v-100q0 -21 14.5 -35.5 t35.5 -14.5h200q21 0 35.5 14.5t14.5 35.5h100q0 -21 14.5 -35.5t35.5 -14.5h200q21 0 35.5 14.5t14.5 35.5z" />
<glyph unicode="&#xe266;" d="M100 350v100h150v-100h-150zM550 350v100h150v-100h-150zM400 850q186 0 318 -132t132 -318t-132 -318t-318 -132t-318 132t-132 318t132 318t318 132zM500 300h200q21 0 35.5 14.5t14.5 35.5v100q0 21 -14.5 35.5t-35.5 14.5h-200q-21 0 -35.5 -14.5t-14.5 -35.5h-100 q0 21 -14.5 35.5t-35.5 14.5h-200q-21 0 -35.5 -14.5t-14.5 -35.5v-100q0 -21 14.5 -35.5t35.5 -14.5h200q21 0 35.5 14.5t14.5 35.5h100q0 -21 14.5 -35.5t35.5 -14.5z" />
<glyph unicode="&#xe267;" d="M-50 850h900v-900h-900v900zM252 150v334h-104v-334h104zM200 530q25 0 42.5 17.5t17.5 42.5t-17.5 42.5t-42.5 17.5t-43 -17.5t-18 -42.5t18 -42.5t43 -17.5zM641 150v183q0 37 -5 63.5t-18 49.5t-38.5 34.5t-63.5 11.5q-35 0 -60.5 -15.5t-37.5 -38.5h-2v46h-99v-334 h104v165q0 40 12.5 63t49.5 23q15 0 26 -6t16 -13.5t8 -21.5t3.5 -23t0.5 -25v-162h104z" />
<glyph unicode="&#xe268;" d="M400 850q186 0 318 -132t132 -318t-132 -318t-318 -132t-318 132t-132 318t132 318t318 132zM257 150v334h-104v-334h104zM205 530q25 0 42.5 17.5t17.5 42.5q0 16 -8 30t-22 22t-30.5 8t-30.5 -8t-22 -22t-8 -30q0 -25 18 -42.5t43 -17.5zM646 150v183q0 37 -5 63.5 t-18 49.5t-38.5 34.5t-63.5 11.5q-24 0 -44.5 -8t-33.5 -20t-20 -26h-2v46h-99v-334h104v165q0 15 1 26t5 23t10.5 19.5t18 12.5t27.5 5q11 0 19.5 -3t14 -7.5t9.5 -12.5t6 -14.5t3 -17t1.5 -17t0.5 -17.5v-162h104z" />
<glyph unicode="&#xe269;" d="M59 800h682q24 0 41.5 -17t17.5 -41v-684q0 -24 -17.5 -41t-41.5 -17h-682q-24 0 -41.5 17t-17.5 41v684q0 24 17.5 41t41.5 17zM237 118v382h-119v-382h119zM177.5 552q28.5 0 49 20.5t20.5 49t-20.5 48.5t-49 20t-48.5 -20t-20 -48.5t20 -49t48.5 -20.5zM682 118v210 q0 42 -5.5 72t-20.5 56.5t-44 40t-72 13.5q-41 0 -70 -18.5t-43 -43.5h-2v52h-113v-382h118v189q0 45 14.5 71.5t57.5 26.5q17 0 29 -6.5t18.5 -15.5t9.5 -25t3.5 -26t0.5 -28v-186h119z" />
<glyph unicode="&#xe280;" d="M401 401v-350h100l-125 -150l-125 150h100v350h50zM701 544q43 -11 77 -38.5t53.5 -68t19.5 -86.5q0 -83 -58.5 -141.5t-141.5 -58.5h-100v50h100q62 0 106 44t44 106q0 51 -31.5 91.5t-81.5 52.5l-39 10l2 42v6q-1 41 -30 69.5t-70 28.5q-20 0 -37 -8l-32 -12l-23 24 q-45 46 -108 46q-62 0 -106 -44t-44 -106v-50h-50q-62 0 -106 -44t-44 -106t44 -106t106 -44h50v-50h-50q-83 0 -141.5 58.5t-58.5 141.5t58.5 141.5t141.5 58.5q0 83 58.5 141.5t141.5 58.5q84 0 143 -61q28 11 57 11q62 0 106 -44t44 -106v-3.5v-3.5z" />
<glyph unicode="&#xe281;" d="M699 493q66 -17 108.5 -70.5t42.5 -122.5q0 -83 -58.5 -141.5t-141.5 -58.5h-250v150h150l-175 200l-175 -200h150v-150h-200q-83 0 -141.5 58.5t-58.5 141.5t58.5 141.5t141.5 58.5q0 83 58.5 141.5t141.5 58.5q84 0 144 -61q27 11 56 11q62 0 106 -44t44 -106 q0 -1 -0.5 -3.5t-0.5 -3.5zM350 -50v150h50v-150h-50z" />
<glyph unicode="&#xe282;" d="M350 -50v300h-150l175 200l175 -200h-150v-300h-50zM700 493q43 -11 77 -38.5t53.5 -68t19.5 -86.5q0 -83 -58.5 -141.5t-141.5 -58.5h-100v50h100q62 0 106 44t44 106q0 34 -14.5 64t-40 51t-58.5 29l-39 10l2 42v6q-1 41 -30 69.5t-70 28.5q-20 0 -38 -8l-31 -12 l-23 24q-45 46 -108 46q-62 0 -106 -44t-44 -106v-50h-50q-62 0 -106 -44t-44 -106t44 -106t106 -44h50v-50h-50q-83 0 -141.5 58.5t-58.5 141.5t58.5 141.5t141.5 58.5q0 83 58.5 141.5t141.5 58.5q84 0 144 -61q27 11 56 11q62 0 106 -44t44 -106v-3.5v-3.5z" />
<glyph unicode="&#xe283;" d="M400 391l282 282l36 -35l-281 -280l-158 -53l52 159l281 280l35 -35l-282 -283zM718 850l106 -106l-71 -71l-106 106zM200 226l264 88l185 185v-499h-649v699h497l-209 -208z" />
<glyph unicode="&#xe284;" d="M598 49v329l49 50v-429h-649v699h426l-50 -50h-326v-599h550zM398 390l282 282l36 -35l-281 -280l-158 -53l53 159l280 280l35 -35l-282 -283zM716 849l106 -106l-71 -71l-106 106z" />
<glyph unicode="&#xe285;" d="M350 700q84 0 144 -61q27 11 56 11q62 0 106 -44t44 -106q0 -1 -0.5 -3.5t-0.5 -3.5q66 -17 108.5 -70.5t42.5 -122.5q0 -83 -58.5 -141.5t-141.5 -58.5h-500q-83 0 -141.5 58.5t-58.5 141.5t58.5 141.5t141.5 58.5q0 83 58.5 141.5t141.5 58.5z" />
<glyph unicode="&#xe286;" d="M350 650q-62 0 -106 -44t-44 -106v-50h-50q-62 0 -106 -44t-44 -106t44 -106t106 -44h500q62 0 106 44t44 106q0 51 -31.5 91.5t-81.5 53.5l-39 10l1 40q0 3 1 7q-1 27 -14.5 49.5t-36 35.5t-49.5 13q-19 0 -38 -8l-31 -12l-23 24q-45 46 -108 46zM350 700q84 0 144 -61 q27 11 56 11q62 0 106 -44t44 -106q0 -1 -0.5 -3.5t-0.5 -3.5q66 -17 108.5 -70.5t42.5 -122.5q0 -83 -58.5 -141.5t-141.5 -58.5h-500q-83 0 -141.5 58.5t-58.5 141.5t58.5 141.5t141.5 58.5q0 83 58.5 141.5t141.5 58.5z" />
<glyph unicode="&#xe287;" d="M800 150v500h-800v-500h800z" />
<glyph unicode="&#xe288;" d="M750 600h-700v-400h700v400zM800 650v-500h-800v500h800z" />
<glyph unicode="&#xe289;" d="M150 0h500v800h-500v-800z" />
<glyph unicode="&#xe28a;" d="M600 750h-400v-700h400v700zM650 800v-800h-500v800h500z" />
<glyph unicode="&#xe28b;" d="M200 150q-21 0 -35.5 -14.5t-14.5 -35.5t14.5 -35.5t35.5 -14.5t35.5 14.5t14.5 35.5t-14.5 35.5t-35.5 14.5zM200 200q41 0 70.5 -29.5t29.5 -70.5t-29.5 -70.5t-70.5 -29.5t-70.5 29.5t-29.5 70.5t29.5 70.5t70.5 29.5zM600 150q-21 0 -35.5 -14.5t-14.5 -35.5 t14.5 -35.5t35.5 -14.5t35.5 14.5t14.5 35.5t-14.5 35.5t-35.5 14.5zM600 200q41 0 70.5 -29.5t29.5 -70.5t-29.5 -70.5t-70.5 -29.5t-70.5 29.5t-29.5 70.5t29.5 70.5t70.5 29.5zM150 650h600l-50 -300h-600v450h-100v50h150v-200zM650 400l35 200h-535v-200h500z" />
<glyph unicode="&#xe28c;" d="M250 150q-21 0 -35.5 -14.5t-14.5 -35.5t14.5 -35.5t35.5 -14.5t35.5 14.5t14.5 35.5t-14.5 35.5t-35.5 14.5zM250 200q41 0 70.5 -29.5t29.5 -70.5t-29.5 -70.5t-70.5 -29.5t-70.5 29.5t-29.5 70.5t29.5 70.5t70.5 29.5zM600 150q-21 0 -35.5 -14.5t-14.5 -35.5 t14.5 -35.5t35.5 -14.5t35.5 14.5t14.5 35.5t-14.5 35.5t-35.5 14.5zM600 200q41 0 70.5 -29.5t29.5 -70.5t-29.5 -70.5t-70.5 -29.5t-70.5 29.5t-29.5 70.5t29.5 70.5t70.5 29.5zM600 750l-150 -150l-150 150h100v150h100v-150h100zM200 500h500l-50 -200h-500v300h-100v50 h150v-150zM612 350l26 100h-438v-100h412z" />
<glyph unicode="&#xe28d;" d="M-50 700h900v-600h-900v600zM800 200v450h-800v-500h50l150 150l100 -100l250 250z" />
<glyph unicode="&#xe292;" d="M450 750h200v-50h-550v50h200v50h150v-50zM200 550h50v-350h-50v350zM500 550h50v-350h-50v350zM350 550h50v-350h-50v350zM600 50v600h50v-650h-550v650h50v-600h450z" />
<glyph unicode="&#xe294;" d="M0 700h800v-50h-800v50zM0 400v50h800v-50h-800zM0 150v50h800v-50h-800z" />
<glyph unicode="&#xe295;" d="M350 150v350h100v-350h-100zM400 655q23 0 39 -16t16 -39t-16 -39t-39 -16t-39 16t-16 39t16 39t39 16zM400 850q186 0 318 -132t132 -318t-132 -318t-318 -132t-318 132t-132 318t132 318t318 132zM400 0q165 0 282.5 117.5t117.5 282.5t-117.5 282.5t-282.5 117.5 t-282.5 -117.5t-117.5 -282.5t117.5 -282.5t282.5 -117.5z" />
<glyph unicode="&#xe298;" d="M366 454l28 -93h-57zM36 495h34q21 0 32.5 -11t11.5 -29t-11 -27.5t-32 -9.5h-35v77zM-200 700h1200v-600h-1200v600zM130 250l72 4q-9 7 -12.5 22t-3.5 26v19q0 27 -12 45t-39 26q24 11 36 27.5t12 39.5q0 42 -30.5 66t-82.5 24h-104v-299h70v114h37q22 0 33 -11t11 -32 v-18q0 -14 2.5 -30.5t10.5 -22.5zM427 250h73l-97 299h-37v-1v1h-38l-97 -299h73l17 58h89zM796 250l68 299h-70l-36 -194h-1l-51 194h-53l-50 -194h-2l-36 194h-70l69 -299h65l50 184h1l50 -184h66z" />
<glyph unicode="&#xe299;" d="M-200 700h1200v-600h-1200v600zM324 291v119h-122v-46h53v-54q-7 -5 -18 -8t-30 -3q-26 0 -41 19t-15 50v63q0 30 15 49.5t39 19.5t35.5 -11t11.5 -33h65l1 2q1 44 -28.5 69.5t-86.5 25.5q-53 0 -87 -34.5t-34 -87.5v-63q0 -54 35 -88t90 -34q45 0 73 13t44 32zM448 250 v299h-69v-299h69zM708 495v54h-200v-299h69v120h110v54h-110v71h131z" />
<glyph unicode="&#xe29a;" d="M65 495h44q23 0 35 -12.5t12 -32.5t-12 -32t-35 -12h-44v89zM-200 700h1200v-600h-1200v600zM193.5 379q31.5 27 31.5 71t-31.5 71.5t-84.5 27.5h-114v-299h70v102h44q53 0 84.5 27zM518 250v299h-69v-188h-1l-110 188h-69v-299h69v187l2 1l109 -188h69zM811 291v119 h-123v-46h53v-54q-6 -5 -17 -8t-30 -3q-27 0 -41.5 19t-14.5 50v63q0 31 15 50t39 19t35.5 -11t11.5 -33h65v2q1 44 -28 69.5t-86 25.5q-53 0 -87 -34.5t-34 -87.5v-63q0 -54 34.5 -88t90.5 -34q44 0 72.5 13t44.5 32z" />
<glyph unicode="&#xe29b;" d="M-200 700h1200v-600h-1200v600zM204 495v54h-226v-54h78v-245h69v245h79zM315 250v299h-70v-299h70zM574 495v54h-199v-299h69v120h109v54h-109v71h130zM816 495v54h-199v-299h69v120h109v54h-109v71h130z" />
<glyph unicode="&#xe29c;" d="M691 495h44q23 0 35 -12.5t12 -32.5t-12 -32t-35 -12h-44v89zM-200 700h1200v-600h-1200v600zM125 250h84l-92 151l86 148h-80l-50 -101l-48 101h-79l85 -148l-88 -151h80l51 103zM563 250v299h-91l-68 -209h-1l-67 209h-91v-299h70v190h1l65 -190h46l66 193l1 -1v-192 h69zM819.5 379q31.5 27 31.5 71t-31.5 71.5t-84.5 27.5h-114v-299h70v102h44q53 0 84.5 27z" />
<glyph unicode="&#xe300;" d="M700 100v157l100 92v-349h-850v650h366q-63 -44 -113 -100h-153v-450h650zM650 350v150q-71 0 -137.5 -14t-115 -36t-91 -48.5t-70.5 -53t-48 -48.5t-29 -36l-9 -14q2 8 6.5 22.5t23 56t41.5 79.5t64.5 84t90.5 79t120.5 56t153.5 23v150l250 -225z" />
<glyph unicode="&#xe301;" d="M699 102v350l100 100v-551h-851v651h377l-100 -100h-176v-450h650zM802 749l-78 -79q-6 -6 -51 39t-39 52l78 78q32 -18 52 -38q9 -9 18.5 -22t14.5 -21zM705 651l-280 -280q-6 -6 -51 39q-14 13 -28 31t-11 21l279 279q-5 -5 40 -50q14 -15 31 -29t20 -11zM215 252 l86 165q12 -19 35 -44q14 -14 44 -36z" />
<glyph unicode="&#xe302;" d="M699 493q66 -17 108.5 -70.5t42.5 -122.5q0 -83 -58.5 -141.5t-141.5 -58.5h-500q-83 0 -141.5 58.5t-58.5 141.5t58.5 141.5t141.5 58.5q0 83 58.5 141.5t141.5 58.5q84 0 144 -61q27 11 56 11q62 0 106 -44t44 -106q0 -1 -0.5 -3.5t-0.5 -3.5zM450 350h100l-175 200 l-175 -200h100v-150h150v150z" />
<glyph unicode="&#xe303;" d="M450 450h150l-200 -200l-200 200h150v250h100v-250zM0 200h800v-100h-800v100z" />
<glyph unicode="&#xe304;" d="M450 49l-315 315q-14 15 -24.5 40t-10.5 46v200q0 10 4 19.5t10.5 16t16 10.5t19.5 4h200q21 0 46 -10.5t40 -24.5l315 -315q14 -15 14 -35.5t-14 -35.5l-230 -230q-15 -14 -35.5 -14t-35.5 14zM250 612q-26 0 -44 -18t-18 -44t18 -44.5t44 -18.5t44.5 18.5t18.5 44.5 t-18.5 44t-44.5 18z" />
<glyph unicode="&#xe305;" d="M450 100l-315 314q-14 15 -24.5 40t-10.5 46v200q0 21 14.5 35.5t35.5 14.5h200q21 0 46 -10.5t40 -24.5l315 -315q14 -15 14 -35.5t-14 -35.5l-230 -229q-15 -15 -35.5 -15t-35.5 15zM250 662q-26 0 -44 -18t-18 -44q0 -17 8 -31.5t22.5 -23t31.5 -8.5q26 0 44.5 18.5 t18.5 44.5t-18.5 44t-44.5 18zM753 247q-1 -1 -1.5 -2l-0.5 -1l-230 -230q-15 -14 -35.5 -14t-35.5 14l-315 315q-14 15 -24.5 40t-10.5 45v-64q0 -21 10.5 -46t24.5 -40l315 -315q15 -14 35.5 -14t35.5 14l230 230q13 14 13.5 33.5t-11.5 34.5z" />
<glyph unicode="&#xe306;" d="M400 750q109 0 201 -41t145.5 -112t53.5 -154.5t-53.5 -154.5t-145.5 -112t-201 -41q-40 0 -79 6q-70 -65 -184 -91q42 59 42 134v1.5v0.5q-45 23 -80 54t-59 69t-33 80q-7 28 -7 54q0 42 16 84q36 98 142.5 160.5t241.5 62.5z" />
<glyph unicode="&#xe307;" d="M150 300q-38 0 -69 31t-31 69t31 69t69 31t69 -31t31 -69t-31 -69t-69 -31zM400 300q-38 0 -69 31t-31 69t31 69t69 31t69 -31t31 -69t-31 -69t-69 -31zM650 300q-38 0 -69 31t-31 69t31 69t69 31t69 -31t31 -69t-31 -69t-69 -31z" />
<glyph unicode="&#xe308;" d="M486 416l358 309q-13 25 -39 25h-810q-27 0 -39 -25l358 -309l18 -16l68 -58l68 58zM277 384l-327 282v-566q0 -20 13 -36zM814 51l-310 317l-77 -66l-27 -23l-27 23l-77 66l-310 -317q6 -1 9 -1h810q3 0 9 1zM850 666l-327 -282l314 -320q13 16 13 36v566z" />
<glyph unicode="&#xe309;" d="M400 849l-405 -200q-29 0 -39 22l444 230l444 -231q-11 -21 -39 -21zM-50 665l327 -282l-314 -320q-13 15 -13 36v566zM427 301l77 66l310 -317q-6 -1 -9 -1h-810q-3 0 -9 1l310 317l77 -66l27 -24zM523 383l327 282v-566q0 -20 -13 -36z" />
<glyph unicode="&#xe30a;" d="M550 575h250q41 0 70.5 -29.5t29.5 -70.5v-150q0 -41 -29.5 -70.5t-70.5 -29.5h-250q-41 0 -70.5 29.5t-29.5 70.5v25h-100v-25q0 -41 -29.5 -70.5t-70.5 -29.5h-250q-41 0 -70.5 29.5t-29.5 70.5v150q0 41 29.5 70.5t70.5 29.5h250q41 0 70.5 -29.5t29.5 -70.5v-25h100 v25q0 41 29.5 70.5t70.5 29.5zM250 325v25h-50v100h50v25h-250v-150h250zM800 325v150h-250v-25h50v-100h-50v-25h250z" />
<glyph unicode="&#xe30b;" d="M150 300q-38 0 -69 31t-31 69t31 69t69 31t69 -31t31 -69t-31 -69t-69 -31zM400 300q-38 0 -69 31t-31 69t31 69t69 31t69 -31t31 -69t-31 -69t-69 -31zM650 300q-38 0 -69 31t-31 69t31 69t69 31t69 -31t31 -69t-31 -69t-69 -31z" />
<glyph unicode="&#xe30c;" d="M508 400h67q10 0 17.5 -7.5t7.5 -17.5t-7.5 -17.5t-17.5 -7.5h-400q-10 0 -17.5 7.5t-7.5 17.5t7.5 17.5t17.5 7.5h67l33 350h-50q-10 0 -17.5 7.5t-7.5 17.5t7.5 17.5t17.5 7.5h300q10 0 17.5 -7.5t7.5 -17.5t-7.5 -17.5t-17.5 -7.5h-50zM350 17v283h50v-283l-25 -67z " />
<glyph unicode="&#xe30d;" d="M300 800h200v-50h-200v50zM650 800h150v-800h-800v800h150v-50h-100v-200h700v200h-100v50zM150 400v50h-50v-50h50zM250 400v50h-50v-50h50zM350 400v50h-50v-50h50zM450 400v50h-50v-50h50zM550 400v50h-50v-50h50zM650 400v50h-50v-50h50zM150 300v50h-50v-50h50z M250 300v50h-50v-50h50zM350 300v50h-50v-50h50zM450 300v50h-50v-50h50zM550 300v50h-50v-50h50zM650 300v50h-50v-50h50zM150 200v50h-50v-50h50zM250 200v50h-50v-50h50zM350 200v50h-50v-50h50zM450 200v50h-50v-50h50zM550 200v50h-50v-50h50zM650 200v50h-50v-50h50z M150 100v50h-50v-50h50zM250 100v50h-50v-50h50zM350 100v50h-50v-50h50zM450 100v50h-50v-50h50zM550 100v50h-50v-50h50zM250 650v250h-50v-250h50zM600 650v250h-50v-250h50z" />
<glyph unicode="&#xe30e;" d="M375 801q-155 0 -265 -110t-110 -265t110 -265.5t265 -110.5t265 110.5t110 265.5q0 154 -110 264.5t-265 110.5zM375 851q175 0 300 -124.5t125 -300.5t-125 -301.5t-300 -125.5q-176 0 -300.5 125.5t-124.5 301.5t124.5 300.5t300.5 124.5zM375 720l50 -327 q0 -27 -15 -46.5t-35 -19.5q-21 0 -35.5 19.5t-14.5 46.5zM700 426l-358 -50q-27 0 -46.5 14.5t-19.5 35.5q0 20 19.5 35t46.5 15z" />
<glyph unicode="&#xe30f;" d="M800 400v-0.5v-1.5v3v2v-1v-2zM787 300q-34 -131 -141.5 -215.5t-245.5 -84.5q-109 0 -201 53.5t-145.5 145.5t-53.5 201q0 155 106 270q-2 -4 -9 -21t-14 -29q-7 -10 -11 -23t-6 -21t-4 -23t-3 -19q-4 -20 10 -83q1 -5 4 -3.5t6.5 4.5t8.5 -1q4 -3 4 -8t-2 -10t-2 -7 q0 -5 7 -10t28 -19h1q14 -10 18 -8q4 1 8 1q7 1 11.5 -8t11.5 -12q4 -3 13.5 -7.5t15.5 -7.5t9 -6q1 -2 4.5 -7.5t7.5 -9t12 -4.5q7 -1 15 -7t14 -4t7.5 6t4.5 5t5 -4t3.5 -15.5t2.5 -15.5q2 -8 -10 -21.5t-12 -18.5q-2 -2 -1 -14l1 -12q0 -3 3 -8t6.5 -9t9 -9t7.5 -8 q36 -43 46 -52q4 -3 20.5 -8.5t20.5 -10.5q5 -5 5.5 -24.5t-0.5 -25.5q-1 -3 -0.5 -6t1 -5t1 -4.5t-0.5 -3.5q-4 -13 0 -31q1 -3 4 -6t7.5 -5t8.5 -3.5t7 -2.5l3 -1q23 13 30 23q10 14 31 16q8 1 16.5 11t12.5 12q5 3 13.5 10.5t15.5 15t11 12.5q2 2 4.5 8.5t7 13t13.5 10.5 q20 10 38 33q5 6 9 26.5t10 24.5q8 7 12.5 31t-2.5 32q-6 6 -12.5 6t-13.5 2q-6 2 -14.5 -2t-19.5 -4q-9 0 -17.5 2t-17.5 6t-13 5q-8 2 -18 18.5t-16 16.5q-36 5 -45 7q-6 2 -13.5 8t-13.5 11.5t-9 5.5t-8 -1t-12 -3t-13 -3q-18 -4 -21 8q-1 2 -3.5 3.5t-5.5 1t-7 -1.5 l-8 -2t-7.5 -2t-5.5 -1q-3 0 -8 -2.5t-9.5 -6t-8 -7t-3.5 -5.5q-1 -4 -6.5 -6t-14.5 2q-5 2 -9.5 2t-7.5 -1t-6 -2.5t-4 -1.5q-2 -1 -8 4.5t-6 9.5q-1 1 -0.5 3t1.5 4t1.5 4t0.5 3q0 3 -2 8.5t-5 10.5t-5.5 6.5t-5.5 1.5t-7 -0.5t-6 -0.5q-4 0 -5 7.5t1 13.5q9 26 2 30 q-3 3 -24 -3q-3 -1 -4.5 -5t-4.5 -9t-7 -7q-6 -3 -12 1.5t-9.5 10.5t-6.5 12q-1 4 2.5 16.5t3.5 17.5t5 11t12 10.5t12 5.5q6 2 14.5 -0.5t11.5 -2.5q3 1 3.5 6.5t1.5 6.5t4 1t6 -1t7 -1.5t7 0.5q9 1 9 -22q0 -2 1.5 -5.5t4 -7t4.5 -6t4 -3.5q3 -1 5 5q3 8 3 17 q0 4 -3.5 18.5t-3.5 19.5q0 4 8.5 10.5t18.5 13t13 11.5q3 4 7 17t8 20q5 8 10 7t6 0t1 5t1 9t3 8q3 4 16.5 2.5t13.5 1.5t12 16l6 7l-2 -1q-6 -4 -12.5 1t-6.5 8q0 2 4 2.5t9.5 2t8.5 3.5q4 3 5 -4v-3l2 -4q2 4 20 1.5t20 -0.5q3 4 -2 13t-11 9t-8 1.5t-2 9.5 q0 5 -15.5 9.5t-16.5 7.5q-2 5 -12.5 12t-13.5 1q-4 -5 -8 -2t-4 9q-1 6 -11 12.5t-18.5 5.5t-11.5 -10.5t0 -14.5q4 -6 2 -16.5t-9 -16.5q-4 -4 -4.5 -12t-3.5 -9q-2 0 -3 1.5t-1 4.5v5.5v6.5v6q0 3 -10 3.5t-18.5 -0.5t-11.5 2q-1 3 10.5 11.5t11.5 13.5q0 3 3.5 5 t6.5 2.5t8.5 1t7.5 1.5q8 1 11 12q2 5 -2 6q-3 1 -8 3.5t-11 6t-9 5.5q-6 1 -8 1t-8 -3t-10 -4q26 13 49 20q-4 -3 -4 -4q0 -3 10 -3.5t22 1.5t14 5q3 2 7 2t11 -1t11 -1t8 -4t8.5 -10t8.5 -8q4 -3 12.5 -11t19.5 -12q18 -6 21 7q-5 10 10 36q4 8 2 9.5t-12 1.5 q-4 0 -6.5 1.5t-7 4.5t-9.5 5q54 -1 106 -16q21 -9 25 -12q5 -5 9.5 -20.5t20.5 -17.5q19 -3 30 -12q6 -5 10.5 1t11.5 4q25 -10 33 -22q2 -4 -1 -6q-4 -2 -16 -3q-11 -3 -11 -6q3 -2 8.5 -12t11 -18t9.5 -8h6.5t8 -0.5t5 -3t2.5 -7.5q0 -19 7 -31q1 -1 3.5 -4.5t3 -4.5 t1 -5t-1.5 -7q-2 -10 1 -40q1 -6 11.5 -23t10.5 -27v-5.5v-5.5v-5t0.5 -5.5t1 -5t1.5 -5t2.5 -4t3.5 -4t5 -2.5q7 -4 9 -6t4 -5.5t6 -7.5q3 -2 6 -6t4.5 -6.5t4 -5t4 -2t3.5 2.5q16 22 21 27q4 3 7 -14q8 -40 2 -73q-3 -13 -4.5 -28.5t-2 -24.5t-0.5 -8zM797 356q1 2 1 7 q0 -4 -1 -7zM791 315v3l1 5q0 -2 -1 -5v-3z" />
<glyph unicode="&#xe310;" d="M426 850q176 0 300.5 -124.5t124.5 -300.5t-124.5 -300.5t-300.5 -124.5t-301.5 124.5t-125.5 300.5t125.5 300.5t301.5 124.5zM451 200v-124q129 10 221.5 102.5t101.5 221.5h-123v50h123q-9 129 -101.5 221.5t-221.5 102.5v-124h-50v124q-131 -10 -223 -102t-101 -222 h124v-50h-124q9 -130 101 -222t223 -102v124h50z" />
<glyph unicode="&#xe311;" d="M400 869q103 0 176.5 -73.5t73.5 -177t-73.5 -176.5t-176.5 -73t-176.5 73t-73.5 176.5t73.5 177t176.5 73.5zM325 631q26 0 44.5 18.5t18.5 44.5t-18.5 44t-44.5 18t-44.5 -18t-18.5 -44t18.5 -44.5t44.5 -18.5zM450 -31v364q-26 -6 -50 -6t-50 6v-364q16 -2 50 -2t50 2 zM400 -69q75 0 131.5 16.5t56.5 46.5t-56.5 46t-131.5 16t-131 -16t-56 -46t56 -46.5t131 -16.5zM400 33q49 0 88.5 -6.5t57 -13t17.5 -12.5q0 -3 -6.5 -6.5t-20.5 -8t-32.5 -8t-45.5 -6t-58 -2.5t-58 2.5t-45.5 6t-32.5 8t-20 8t-6 6.5q0 6 17 12.5t56.5 13t88.5 6.5z" />
<glyph unicode="&#xe312;" d="M400 850q124 0 212 -88t88 -212q0 -42 -31 -119.5t-75 -157.5t-88 -154.5t-75 -121.5l-31 -47q-12 18 -32.5 49.5t-72 117t-91 159t-72 153t-32.5 121.5q0 124 88 212t212 88zM400 425q52 0 88.5 36.5t36.5 88.5t-36.5 88.5t-88.5 36.5t-88.5 -36.5t-36.5 -88.5 t36.5 -88.5t88.5 -36.5z" />
<glyph unicode="&#xe313;" d="M900 6l-106 -106l-171 172q-100 -69 -224 -69q-166 0 -282.5 116.5t-116.5 281.5q0 166 116.5 282.5t282.5 116.5q165 0 281.5 -116.5t116.5 -282.5q0 -124 -69 -224zM75 401q0 -134 95 -229t229 -95q133 0 228.5 95.5t95.5 228.5q0 134 -95 229t-229 95t-229 -95 t-95 -229zM448 601v-150h150v-99h-150v-150h-99v150h-150v99h150v150h99z" />
<glyph unicode="&#xe314;" d="M900 6l-106 -106l-171 172q-100 -69 -224 -69q-166 0 -282.5 116.5t-116.5 281.5q0 166 116.5 282.5t282.5 116.5q165 0 281.5 -116.5t116.5 -282.5q0 -124 -69 -224zM75 401q0 -134 95 -229t229 -95q133 0 228.5 95.5t95.5 228.5q0 134 -95 229t-229 95t-229 -95 t-95 -229zM199 451h399v-99h-399v99z" />
<glyph unicode="&#xe315;" d="M900 6l-106 -106l-214 215q-94 -62 -206 -62q-102 0 -188 50t-136 136t-50 187.5t50 187.5t136 136t187.5 50t187.5 -50t136 -136t50 -188q0 -112 -62 -206zM75 426q0 -123 87.5 -211t211 -88t211.5 88t88 211.5t-88 211t-211 87.5q-81 0 -150 -40t-109 -109t-40 -150z " />
<glyph unicode="&#xe316;" d="M399 751q143 0 242 -31t99 -74q0 -16 -72 -95t-144 -150l-72 -71v-330h-100v330q-292 281 -292 316q0 43 97.5 74t241.5 31zM399 628q168 0 273 35q-105 35 -273 35q-169 0 -274 -35q105 -35 274 -35z" />
<glyph unicode="&#xe317;" d="M400 800l400 -400h-100v-400h-200v300h-200v-300h-200v400h-100z" />
<glyph unicode="&#xe318;" d="M600 0v800h-400v-800l200 200z" />
<glyph unicode="&#xe319;" d="M750 450v300q42 0 73 -10.5t45 -25t22 -29t9 -25.5l1 -10v-550h-76q-123 0 -229.5 -28t-144.5 -72h-50q-25 29 -83 52t-135 35.5t-158 12.5h-74v550q0 2 0.5 5.5t5 14t12 20t24.5 21t40 20t60 14t83 5.5q63 0 109.5 -10t67.5 -24.5t33 -29t14 -24.5l1 -10v-452l25 -149 l25 149v450q1 4 3 11t13 24t25.5 30t43.5 24t65 11v-300l75 50z" />
<glyph unicode="&#xe31a;" d="M200 200q41 0 70.5 -29.5t29.5 -70.5t-29.5 -70.5t-70.5 -29.5t-70.5 29.5t-29.5 70.5t29.5 70.5t70.5 29.5zM600 200q41 0 70.5 -29.5t29.5 -70.5t-29.5 -70.5t-70.5 -29.5t-70.5 29.5t-29.5 70.5t29.5 70.5t70.5 29.5zM150 650h600l-50 -300h-600v450h-100v50h150v-200 z" />
<glyph unicode="&#xe31b;" d="M240 200q41 0 70.5 -29.5t29.5 -70.5t-29.5 -70.5t-70.5 -29.5t-70.5 29.5t-29.5 70.5t29.5 70.5t70.5 29.5zM590 200q41 0 70.5 -29.5t29.5 -70.5t-29.5 -70.5t-70.5 -29.5t-70.5 29.5t-29.5 70.5t29.5 70.5t70.5 29.5zM590 750l-150 -150l-150 150h100v150h100v-150 h100zM190 500h500l-50 -200h-500v300h-100v50h150v-150z" />
<glyph unicode="&#xe31c;" d="M-50 450h900v-300q0 -14 -6.5 -25.5t-18 -18t-25.5 -6.5h-800q-21 0 -35.5 14.5t-14.5 35.5v300zM150 200v50h-100v-50h100zM400 200v50h-200v-50h200zM0 700h800q21 0 35.5 -14.5t14.5 -35.5v-50h-900v50q0 21 14.5 35.5t35.5 14.5z" />
<glyph unicode="&#xe31e;" d="M50 402h300v-350h-300v350zM450 402h300v-350h-300v350zM461 602h-59q3 22 12.5 52.5t23.5 64.5t35 57t42 23q63 0 107.5 -45t44.5 -108q0 -15 -8 -29.5t-19 -14.5h-150q36 0 88 18t68 32q-4 35 -47 73.5t-80 42.5q-24 -25 -58 -166zM310 602h-150q-11 0 -19 15.5 t-8 30.5q0 62 44.5 105.5t107.5 43.5q28 0 54 -40t40 -82t19 -73h-59q-34 143 -58 168q-36 -4 -77.5 -44t-45.5 -76q16 -14 66 -31t86 -17zM350 602v-150h-350v150h350zM450 602h350v-150h-350v150z" />
<glyph unicode="&#xe31f;" d="M521 291l-13 -44q323 -113 323 -143v-54h-862v54q0 13 81 49t161 65l81 29l-13 44q-3 2 -8 7.5t-14.5 28t-11.5 52.5q-3 -2 -10 9q-23 39 -34 92q-5 23 1 26q7 2 12 -1.5t7 -8.5l2 -5q0 4 -1 12t-3.5 29.5t-3.5 39.5t0 37.5t4 29.5q3 8 9 18.5t21 27.5t33.5 31t50 24 t67.5 10t67.5 -10t50 -24t33.5 -31.5t21 -27.5t9 -18q5 -21 4.5 -54t-4.5 -64l-4 -30q0 2 1.5 5.5t7 7.5t12.5 2q12 -6 -16 -80q-20 -50 -27 -47q-2 -30 -10.5 -52t-16.5 -29z" />
<glyph unicode="&#xe320;" d="M824 94h126v5.5v14t-1 20.5t-3 22t-5.5 21.5t-9.5 17t-13 10.5l-136 46l-11 32q3 5 7 14.5t11 30t6 32.5q2 0 5.5 1t11.5 17t14 48q1 12 -4.5 15t-15.5 -8l1 5t2 13.5t1.5 19.5t-0.5 23.5t-4.5 25t-10.5 24.5t-17.5 22t-27.5 17t-38 10h-16h-15q-40 -6 -63 -25 q0 -9 -1 -23q26 -20 23 -62l-1 -5q-4 -26 -9 -45l-2 -8q-5 -17 -18 -37q-9 -17 -16 -17l3 -6q0 -12 6 -32.5t12 -35.5l7 -14l-11 -32q-3 -1 -8 -3q93 -31 145 -48q62 -22 76 -100v-3.5v-2.5zM203 360q2 0 4 1q-10 9 -17 23q-9 14 -17 40q-2 8 -2 9q-6 19 -10 45l-1 5 q-2 42 24 62q-1 14 -1 23q-24 20 -63 25h-15.5h-15.5q-22 -3 -38.5 -10t-27 -17t-18 -22t-10.5 -24.5t-4.5 -25t-0.5 -23.5t2 -19.5t2 -13.5l1 -5q-10 11 -15.5 8t-4.5 -16q5 -31 13 -47.5t12 -16.5l5 -1q0 -7 2.5 -18t6 -21t7 -19t6.5 -14l2 -6l-11 -32q-79 -26 -135 -45 q-17 -6 -25 -33.5t-7 -52.5v-25h125q1 0 1 6q14 78 75 100q28 10 146 48l-8 3l-11 32q1 2 2.5 5.5t6 13.5t8 19.5t6 20.5t1.5 18zM20 50h761q2 20 -3 43q-8 51 -45 64l-204 67l-17 48q5 8 11 21.5t16.5 45t9.5 49.5q10 -3 22 18q7 12 12 31q1 1 1.5 3t0.5 3q5 17 9 43 q2 22 -9 24q-8 3 -21 -12l1.5 7t3 19.5t3 29t-0.5 35.5t-6.5 38t-15.5 37t-27 32.5t-41 25.5t-57 15h-24h-23q-137 -17 -147 -150q-3 -32 7 -89q-13 15 -22 12q-10 -2 -9 -24q5 -26 9 -43q1 -1 1 -4q1 -1 1 -2q6 -19 13 -31q3 -6 6.5 -10t6 -5.5t5 -2t3.5 -0.5h1 q-1 -8 1 -19t5 -22t7 -22t8 -20.5t7.5 -17t5.5 -11.5l2 -4l-16 -48q-120 -38 -205 -67q-36 -13 -45 -64q-2 -10 -2.5 -20.5t0.5 -16.5v-6z" />
<glyph unicode="&#xe321;" d="M850 362l-140 -35q-12 -50 -40 -94l75 -125l-53 -53l-125 75q-44 -28 -94 -40l-35 -140h-75l-36 140q-50 12 -94 40l-125 -75l-53 53l75 125q-28 44 -40 94l-140 35v75l140 36q12 50 40 94l-75 125l53 53l125 -75q44 28 94 40l35 140h76l35 -140q50 -12 94 -40l125 75 l53 -53l-75 -125q28 -44 40 -94l140 -35v-76zM400 200q83 0 141.5 58.5t58.5 141.5t-58.5 141.5t-141.5 58.5t-141.5 -58.5t-58.5 -141.5t58.5 -141.5t141.5 -58.5z" />
<glyph unicode="&#xe322;" d="M150 300q-38 0 -69 31t-31 69t31 69t69 31t69 -31t31 -69t-31 -69t-69 -31zM400 300q-38 0 -69 31t-31 69t31 69t69 31t69 -31t31 -69t-31 -69t-69 -31zM650 300q-38 0 -69 31t-31 69t31 69t69 31t69 -31t31 -69t-31 -69t-69 -31z" />
<glyph unicode="&#xe323;" d="M550 450l-373 -450h-71l-106 106v71l450 373v144l100 106h150l-100 -100v-71l29 -29h71l100 100v-150l-100 -100h-150zM88.5 88.5q14.5 -14.5 35 -14.5t35.5 14.5t15 35t-15 35.5t-35.5 15t-35 -15t-14.5 -35.5t14.5 -35z" />
<glyph unicode="&#xe324;" d="M450 750h200v-50h-550v50h200v50h150v-50zM100 0v650h550v-650h-550zM500 500v-350h50v350h-50zM350 500v-350h50v350h-50zM200 500v-350h50v350h-50z" />
<glyph unicode="&#xe325;" d="M0 650h800v-600h-800v600zM250 800l100 -100h-300v100h200z" />
<glyph unicode="&#xe326;" d="M250 500h750l-304 -450h-696v600h50v150h200l150 -150h400v-50h-650l-100 -410z" />
<glyph unicode="&#xe329;" d="M0 650h800v-600h-800v600zM750 100v500h-700v-500h700zM100 750v-50h-50v100h200l100 -100h-62l-50 50h-138z" />
<glyph unicode="&#xe32a;" d="M-50 700h900v-600h-900v600zM800 150v100l-250 250l-250 -250l-100 100l-200 -200h800z" />
<glyph unicode="&#xe32b;" d="M650 550v-500h-700v500h700zM148 248l-148 -148h600v130l-182 170l-210 -212zM50 600v50h700v-500h-50v450h-650zM150 750h700v-500h-50v450h-650v50z" />
<glyph unicode="&#xe32c;" d="M450 550h250v-550h-600v800h350v-250zM500 800l200 -200h-200v200z" />
<glyph unicode="&#xe32d;" d="M300 650v-200h200v-450h-500v650h300zM350 500v150l150 -150h-150zM600 800v-200h200v-450h-250v371l-179 179h-71v100h300zM650 800l150 -150h-150v150z" />
<glyph unicode="&#xe32e;" d="M-50 750h900v-700h-900v700zM800 100v600h-800v-600h800zM250 600l350 -200l-350 -200v400z" />
<glyph unicode="&#xe32f;" d="M400 850q186 0 318 -132t132 -318t-132 -318t-318 -132t-318 132t-132 318t132 318t318 132zM400 0q165 0 282.5 117.5t117.5 282.5t-117.5 282.5t-282.5 117.5t-282.5 -117.5t-117.5 -282.5t117.5 -282.5t282.5 -117.5zM300 200v400l300 -200z" />
<glyph unicode="&#xe330;" d="M724 47h75q0 136 -63.5 271.5t-165 237t-237 165t-271.5 63.5v-75q120 0 241.5 -58t213 -149.5t149.5 -213t58 -241.5zM262 147q0 41 -29.5 70.5t-70.5 29.5t-70.5 -29.5t-29.5 -70.5t29.5 -70.5t70.5 -29.5t70.5 29.5t29.5 70.5zM474 47h75q0 120 -70 233.5 t-183.5 183.5t-233.5 70v-75q100 0 196 -60t156 -156t60 -196z" />
<glyph unicode="&#xe333;" d="M300 450h500v-350h-500v350zM450 150v50h-100v-50h100zM450 350v50h-100v-50h100zM600 150v50h-100v-50h100zM600 350v50h-100v-50h100zM750 150v50h-100v-50h100zM750 350v50h-100v-50h100zM650 750l-225 -200l-225 200h150v150h150v-150h150zM0 100v350h250v-350h-250z M0 0v50h250v-50h-250zM150 600v-50h100v-50h-250v50h100v50h50z" />
<glyph unicode="&#xe33c;" d="M900 250h50v-350h-500v100h-350v800h350v-250h250v-100q83 0 141.5 -58.5t58.5 -141.5zM900 -50v250h-50v50q0 62 -44 106t-106 44t-106 -44t-44 -106v-50h-50v-250h400zM700 338q36 0 62 -26t26 -62v-50h-176v50q0 36 26 62t62 26zM500 800l200 -200h-200v200z" />
<glyph unicode="&#xe33e;" d="M550 600h-50v50h50v-50zM700 400v50h50v-50h-50zM650 600h-50v50h50v-50zM450 600h50v-50h-50v50zM850 300h-50v50h50v-50zM450 450v50h50v-50h-50zM500 700v-50h-50v50h50zM400 500v-50h50v-50h-50v-50l-100 -100l-100 100l-200 -200h400h50v-50h-500v600h450v-50h50 v-50h-50v-50h50v-50h-50zM600 550h50v-50h-50v50zM850 400h-50v50h50v-50zM650 500h50v-50h-50v50zM550 600h50v-50h-50v50zM850 200h-50v50h50v-50zM750 600h-50v50h50v-50zM700 550h-50v50h50v-50zM700 500v50h50v-50h-50zM750 450v50h50v-50h-50zM600 150h50v-50h-50v50z M700 150h50v-50h-50v50zM800 100v50h50v-50h-50zM750 350v50h50v-50h-50zM800 600v50h50v-50h-50zM500 550h50v-50h-50v50zM750 550v50h50v-50h-50zM500 150h50v-50h-50v50zM700 700v-50h-50v50h50zM800 700v-50h-50v50h50zM850 500h-50v50h50v-50zM600 700v-50h-50v50h50z " />
<glyph unicode="&#xe33f;" d="M600 350v-50h-50v50h50zM650 250h-50v50h50v-50zM450 250h50v-50h-50v50zM650 250h50v-50h-50v50zM550 250h50v-50h-50v50zM550 300v-50h-50v50h50zM750 100v50h50v-50h-50zM550 650h-50v50h50v-50zM650 650h-50v50h50v-50zM750 650h-50v50h50v-50zM650 100v50h50v-50 h-50zM450 100v50h50v-50h-50zM550 100v50h50v-50h-50zM800 550v50h50v-50h-50zM700 200h50v-50h-50v50zM800 150v50h50v-50h-50zM500 200h50v-50h-50v50zM400 200h50v-50h-50v-50h-450v600h500v-50h-50h-400v-500h50l150 150l100 -100l100 100h50v-50h-50v-50zM500 350v-50 h-50v50h50zM600 200h50v-50h-50v50zM800 700h50v-50h-50v50zM800 250v50h50v-50h-50zM550 400v-50h-50v50h50zM800 350v50h50v-50h-50zM800 450v50h50v-50h-50z" />
<glyph unicode="&#xe348;" d="M400 800q-166 0 -283 -117t-117 -283t117 -283t283 -117t283 117t117 283t-117 283t-283 117zM400 850q186 0 318 -132t132 -318t-132 -318t-318 -132t-318 132t-132 318t132 318t318 132zM363 150h75v212l212 1v75h-212v212h-75l-1 -212h-212v-76h212z" />
<glyph unicode="&#xe349;" d="M400 800q-166 0 -283 -117t-117 -283t117 -283t283 -117t283 117t117 283t-117 283t-283 117zM400 850q186 0 318 -132t132 -318t-132 -318t-318 -132t-318 132t-132 318t132 318t318 132zM150 362l500 1v75h-500v-76z" />
<glyph unicode="&#xe34a;" d="M400 800q-166 0 -283 -117t-117 -283t117 -283t283 -117t283 117t117 283t-117 283t-283 117zM400 850q186 0 318 -132t132 -318t-132 -318t-318 -132t-318 132t-132 318t132 318t318 132zM550 197l53 53l-150 150l150 150l-53 53l-150 -150l-150 150l-53 -53l150 -150 l-150 -150l53 -53l150 150z" />
<glyph unicode="&#xe34b;" d="M400 800q-165 0 -282.5 -117.5t-117.5 -282.5t117.5 -282.5t282.5 -117.5t282.5 117.5t117.5 282.5t-117.5 282.5t-282.5 117.5zM400 850q186 0 318 -132t132 -318t-132 -318t-318 -132t-318 132t-132 318t132 318t318 132zM350 225l300 300l-50 50l-250 -250l-100 100 l-50 -50z" />
<glyph unicode="&#xe34c;" d="M399 655q72 0 112 -36.5t40 -101.5q0 -44 -25 -81t-63 -68q-20 -17 -25 -32.5t-5 -44.5h-83q1 49 11.5 70t48.5 53q27 26 42.5 49.5t15.5 52.5q0 33 -18 51t-51 18q-28 0 -48 -15.5t-20 -45.5h-80l-1 2q-1 61 41 95t108 34zM350 150v80h85v-80h-85zM400 850 q92 0 175 -35.5t143.5 -96t96 -143.5t35.5 -175t-35.5 -175t-96 -143.5t-143.5 -96t-175 -35.5q-61 0 -119.5 16t-108 45t-91 70.5t-70.5 91t-45 108t-16 119.5q0 92 35.5 175t96 143.5t143.5 96t175 35.5zM400 0q81 0 155 31.5t128 85.5t85.5 128t31.5 155 q0 108 -53.5 200.5t-146 146t-200.5 53.5t-200.5 -53.5t-146 -146t-53.5 -200.5t53.5 -200.5t146 -146t200.5 -53.5z" />
<glyph unicode="&#xe370;" d="M250 500h750l-304 -450h-696v600h50v150h200l150 -150h400v-100h-50v50h-362l-150 150h-138v-150h-50v-410zM668 100l243 350h-632l-222 -350h611z" />
<glyph unicode="&#xe372;" d="M250 800l100 -100h-300v100h200zM900 250h50v-350h-500v150h-450v600h800v-228q46 -26 73 -72t27 -100zM900 -50v250h-50v50q0 62 -44 106t-106 44t-106 -44t-44 -106v-50h-50v-250h400zM700 338q36 0 62 -26t26 -62v-50h-176v50q0 36 26 62t62 26z" />
<glyph unicode="&#xe373;" d="M100 750v-50h-50v100h200l100 -100h-62l-50 50h-138zM900 250h50v-350h-500v150h-450v600h800v-228q46 -26 73 -72t27 -100zM450 100v150h50q0 83 58.5 141.5t141.5 58.5q22 0 50 -7v157h-700v-500h400zM900 -50v250h-50v50q0 62 -44 106t-106 44t-106 -44t-44 -106v-50 h-50v-250h400zM700 338q36 0 62 -26t26 -62v-50h-176v50q0 36 26 62t62 26z" />
<glyph unicode="&#xe378;" d="M250 800l100 -100h-300v100h200zM750 175q0 31 -22 53t-53 22t-53 -22t-22 -53t22 -53t53 -22t53 22t22 53zM950 117l-81 -20q0 -1 -0.5 -2t-1.5 -2l43 -72l-81 -82l-72 44q-1 -1 -2 -1.5t-2 -0.5l-20 -81h-116l-20 81q-1 0 -2 0.5t-2 1.5l-72 -44l-82 82l18 29h-457v600 h800v-257l29 17l81 -81l-43 -72q1 -1 1.5 -2t0.5 -2l81 -20v-116zM848 29l-38 62q14 22 20 47l70 18v38l-70 18q-6 25 -20 46l38 63l-27 26l-63 -37q-21 14 -46 20l-18 70h-38l-18 -70q-25 -6 -46 -20l-63 37l-27 -26l38 -63q-14 -21 -20 -46l-70 -18v-38l70 -18 q6 -25 20 -47l-38 -62l27 -27l63 38q21 -14 46 -20l18 -70h38l18 70q25 6 46 20l63 -38z" />
<glyph unicode="&#xe379;" d="M100 750v-50h-50v100h200l100 -100h-62l-50 50h-138zM950 117l-81 -20q0 -1 -0.5 -2t-0.5 -2l42 -71l-82 -82l-71 42q-1 0 -2 -0.5t-2 -0.5l-20 -81h-116l-20 81q-1 0 -2 0.5t-2 0.5l-71 -42l-82 82l17 28h-457v600h800v-257l28 17l82 -82l-42 -71q0 -1 0.5 -2t0.5 -2 l81 -20v-116zM50 100h419l-69 17v116l81 20q0 1 0.5 2t0.5 2l-42 71l82 82l71 -42q1 0 2 0.5t2 0.5l20 81h116l17 -69v219h-700v-500zM848 29l-38 63q14 21 20 46l70 18v38l-70 18q-6 25 -20 46l38 63l-27 27l-63 -38q-21 14 -46 20l-18 70h-38l-18 -70q-25 -6 -46 -20 l-63 38l-27 -27l38 -63q-14 -21 -20 -46l-70 -18v-38l70 -18q6 -25 20 -46l-38 -63l27 -27l63 38q21 -14 46 -20l18 -70h38l18 70q25 6 46 20l63 -38zM675 250q31 0 53 -22t22 -53t-22 -53t-53 -22t-53 22t-22 53t22 53t53 22z" />
<glyph unicode="&#xe37a;" d="M750 175q0 31 -22 53t-53 22t-53 -22t-22 -53t22 -53t53 -22t53 22t22 53zM910 329l-43 -72q1 -1 1.5 -2t0.5 -2l81 -20v-116l-81 -20q0 -1 -0.5 -2t-1.5 -2l43 -72l-81 -81l-72 43q-1 -1 -2 -1.5t-2 -0.5l-20 -81h-116l-20 81q-1 0 -2 0.5t-2 1.5l-72 -43l-81 81l17 29 h-457v600h50v150h200l150 -150h400v-50h-650l-100 -410l200 310h750l-105 -156zM900 156v38l-70 18q-6 25 -20 46l38 63l-27 26l-63 -37q-21 14 -46 20l-18 70h-38l-18 -70q-25 -6 -46 -20l-63 37l-27 -26l38 -63q-14 -21 -20 -46l-70 -18v-38l70 -18q6 -25 20 -47l-38 -62 l27 -27l63 38q21 -14 46 -20l18 -70h38l18 70q25 6 46 20l63 -38l27 27l-38 62q14 22 20 47z" />
<glyph unicode="&#xe37b;" d="M910 329l-43 -72q1 -1 1.5 -2t0.5 -2l81 -20v-116l-81 -20q0 -1 -0.5 -2t-1.5 -2l43 -72l-81 -81l-72 43q-1 -1 -2 -1.5t-2 -0.5l-20 -81h-116l-20 81q-1 0 -2 0.5t-2 1.5l-72 -43l-81 81l17 29h-457v600h50v150h200l150 -150h400v-100h-50v50h-362l-150 150h-138v-150 h-50v-410l200 310h750l-105 -156zM911 450h-178l20 -81q1 0 2 -0.5t2 -1.5l72 43l32 -32zM57 100h412l-69 17v116l81 20q0 1 0.5 2t1.5 2l-43 72l81 81l72 -43q1 1 2 1.5t2 0.5l20 81h-338zM900 156v38l-70 18q-6 25 -20 46l38 63l-27 27l-63 -38q-21 14 -46 20l-18 70h-38 l-18 -70q-25 -6 -47 -20l-62 38l-27 -27l38 -63q-14 -21 -20 -46l-70 -18v-38l70 -18q6 -25 20 -47l-38 -62l27 -27l62 38q22 -14 47 -20l18 -70h38l18 70q25 6 46 20l63 -38l27 27l-38 62q14 22 20 47zM675 250q31 0 53 -22t22 -53t-22 -53t-53 -22t-53 22t-22 53 q0 20 10 37.5t27.5 27.5t37.5 10z" />
<glyph unicode="&#xe380;" d="M-50 50v500h700v-500h-700zM600 500h-600v-400h50l98 98l60 -60l210 212l182 -170v320zM50 600v50h700v-500h-50v450h-650zM150 750h700v-500h-50v450h-650v50z" />
<glyph unicode="&#xe381;" d="M900 250h50v-350h-500v150h-500v500h700v-106q23 6 50 6t50 -6q26 -7 50 -21q30 -17 50 -41q50 -57 50 -132zM418 350l83 -78q6 48 32 88t67 63v77h-600v-400h50l98 98l60 -60zM900 -50v250h-50v50q0 62 -44 106t-106 44t-106 -44t-44 -106v-50h-50v-250h400zM700 338 q36 0 62 -26t26 -62v-50h-176v50q0 36 26 62t62 26zM750 650h-700v-50h650v-150q27 0 50 -6v206zM850 750h-700v-50h650v-277q30 -17 50 -41v368z" />
<glyph unicode="&#xe382;" d="M236 -1289h1v-7h-10v3h-10v10h14v-2h1v3h-13v1h14v-4l1 -1v6h-13v1h14v-7q1 -2 1 -3zM227 -1292v3h1v1l-2 2l-4 -4l-1 1l-3 -3h9zM236 -1295v5h-1v1q0 3 -3 3t-3 -3v-1h-1v-5h8zM232 -1287q2 0 2 -2v-1h-4v1q0 2 2 2zM900 250h50v-350h-500v150h-500v500h700v-107 q28 7 50 7v150h-650v50h700v-207q24 -6 50 -21v278h-650v50h700v-369q50 -58 50 -131zM450 100v150h50q0 29 11 63l-93 87l-210 -212l-60 60l-148 -148h450zM900 -50v250h-50v50q0 62 -44 106t-106 44t-106 -44t-44 -106v-50h-50v-250h400zM700 338q36 0 62 -26t26 -62v-50 h-175v50q0 36 25.5 62t61.5 26z" />
<glyph unicode="&#xe383;" d="M675 250q31 0 53 -22t22 -53t-22 -53t-53 -22t-53 22t-22 53t22 53t53 22zM950 117l-81 -20q0 -1 -0.5 -2t-0.5 -2l42 -71l-82 -82l-71 42q-1 0 -2 -0.5t-2 -0.5l-20 -81h-116l-20 81q-1 0 -2 0.5t-2 0.5l-71 -42l-82 82l17 28h-507v500h700v-100h50v150h-650v50h700 v-269l3 -12q1 0 2 -0.5t2 -0.5l43 25v307h-650v50h700v-361l60 -61l-42 -71q0 -1 0.5 -2t0.5 -2l81 -20v-116zM148 248l-148 -148h400v133l81 20q0 1 0.5 2t0.5 2l-42 71l26 27l-48 45l-210 -212zM848 29l-38 63q14 21 20 46l70 18v38l-70 18q-6 25 -20 46l38 63l-27 27 l-63 -38q-21 14 -46 20l-18 70h-38l-18 -70q-25 -6 -46 -20l-63 38l-27 -27l38 -63q-14 -21 -20 -46l-70 -18v-38l70 -18q6 -25 20 -46l-38 -63l27 -27l63 38q21 -14 46 -20l18 -70h38l18 70q25 6 46 20l63 -38z" />
<glyph unicode="&#xe384;" d="M950 117l-81 -20q0 -1 -0.5 -2t-0.5 -2l42 -72l-82 -82l-71 44q-1 -1 -2 -1.5t-2 -0.5l-20 -81h-116l-20 81q-1 0 -2 0.5t-2 1.5l-71 -44l-82 82l17 29h-507v500h700v-100h50v150h-650v50h700v-269l3 -12q1 0 2 -0.5t2 -1.5l43 26v307h-650v50h700v-361l60 -60l-42 -72 q0 -1 0.5 -2t0.5 -2l81 -20v-116zM418 350l22 -21l82 81l71 -43q1 1 2 1l2 1l3 12v119h-600v-400h50l98 98l60 -61zM848 29l-38 62q14 22 20 47l70 18v38l-70 18q-6 25 -20 46l38 63l-27 26l-63 -37q-21 14 -46 20l-18 70h-38l-18 -70q-25 -6 -46 -20l-63 37l-27 -26l38 -63 q-14 -21 -20 -46l-70 -18v-38l70 -18q6 -25 20 -47l-38 -62l27 -27l63 38q21 -14 46 -20l18 -70h38l18 70q25 6 46 20l63 -38zM675 250q31 0 53 -22t22 -53t-22 -53t-53 -22t-53 22t-22 53q0 20 10 37.5t27.5 27.5t37.5 10z" />
<glyph unicode="&#xe385;" d="M700 600v-600h-600v800h400zM500 727v-127h127zM650 50v500h-200v200h-300v-700h500z" />
<glyph unicode="&#xe386;" d="M900 250h50v-350h-500v100h-350v800h400l200 -200v-150q83 0 141.5 -58.5t58.5 -141.5zM500 727v-127h127zM450 50v200h50q0 69 42.5 122.5t107.5 70.5v107h-200v200h-300v-700h300zM900 -50v250h-50v50q0 62 -44 106t-106 44t-106 -44t-44 -106v-50h-50v-250h400z M700 338q36 0 62 -26t26 -62v-50h-176v50q0 36 26 62t62 26z" />
<glyph unicode="&#xe387;" d="M779 97l171 -72v-125h-600v125l59 25h-459v500h700v-94l3 -1q16 -6 23 -9q1 0 22 -4l1 -0.5l1 -0.5v159h-650v50h700v-230q34 -23 50 -60v340h-650v50h700v-500h-28q1 -9 1 -14q0 -2 -2 -14.5t-9 -34.5t-17 -37q-5 -28 -16 -53zM0 100h520q-10 23 -15 50q-10 15 -17 37 t-9 34.5t-2 14.5q-1 21 9 38q-1 16 -1 34q0 12 4 26l-71 66l-210 -212l-60 60zM900 -50v42l-178 75l1 30q21 31 25 72q2 0 10 19t13 38t1 20q-10 2 -16 -11q6 49 6 73q0 26 -19 52t-55 32l-20 4t-7 2t-8.5 4t-16.5 6q-3 -13 -24 -16q-20 -1 -38.5 -16.5t-28.5 -34t-10 -33.5 q0 -31 9 -73q-6 13 -16 11q-4 -1 1.5 -20t13 -38t10.5 -19q1 -8 2.5 -17t4 -15.5l5 -13t4.5 -11t4 -8t3 -5.5l1 -2l1 -30l-178 -75v-42h500z" />
<glyph unicode="&#xe388;" d="M779 97l171 -72v-125h-600v150h-400v500h700v-94l3 -1q16 -6 23 -9q1 0 22 -4l1 -0.5l1 -0.5v159h-650v50h700v-230q34 -23 50 -60v340h-650v50h700v-500h-28q1 -9 1 -14q0 -2 -2 -14.5t-9 -34.5t-17 -37q-5 -28 -16 -53zM208 138l210 212l68 -64q-1 14 -1 22 q0 26 13.5 53t38.5 49t53 30l10 35v25h-600v-400h50l98 98zM900 -50v42l-178 75l1 30q21 31 25 72q2 0 10 19t13 38t1 20q-10 2 -16 -11q6 49 6 73q0 26 -19 52t-55 32l-20 4t-7 2t-8.5 4t-16.5 6q-3 -13 -24 -16q-20 -1 -38.5 -16.5t-28.5 -34t-10 -33.5q0 -31 9 -73 q-6 13 -16 11q-4 -1 1.5 -20t13 -38t10.5 -19q1 -8 2.5 -17t4 -15.5l5 -13t4.5 -11t4 -8t3 -5.5l1 -2l1 -30l-178 -75v-42h500z" />
<glyph unicode="&#xe389;" d="M800 88l150 -63v-125h-600v150h-350v600h800v-562zM900 -50v42l-178 75l1 30q21 31 25 72q2 0 10 19t13 38t1 20q-10 2 -16 -11q6 49 6 73q0 26 -19 52t-55 32l-20 4t-7 2t-8.5 4t-16.5 6q-3 -13 -24 -16q-20 -1 -38.5 -16.5t-28.5 -34t-10 -33.5q0 -31 9 -73 q-6 13 -16 11q-4 -1 1.5 -20t13 -38t10.5 -19q1 -8 2.5 -17t4 -15.5l5 -13t4.5 -11t4 -8t3 -5.5l1 -2l1 -30l-178 -75v-42h500zM250 800l100 -100h-300v100h200z" />
<glyph unicode="&#xe38a;" d="M100 750v-50h-50v100h200l100 -100h-62l-50 50h-138zM800 88l150 -63v-125h-600v150h-350v600h800v-562zM50 100h470q-10 23 -15 50q-10 15 -17 37t-9 34.5t-2 14.5q-1 21 9 38q-1 16 -1 34q0 26 13.5 53t38.5 49t53 30l7 36l56 -21q16 -6 23 -9q4 -1 22 -4q29 -6 52 -22 v180h-700v-500zM900 -50v42l-178 75l1 30q21 31 25 72q1 0 5 8t8 19t7.5 22t4.5 18.5t-1 9.5q-10 2 -16 -11q6 49 6 73q0 26 -19 52t-55 32l-20 4t-7 2t-8.5 4t-16.5 6q-3 -13 -24 -16q-20 -1 -38.5 -16.5t-28.5 -34t-10 -33.5q0 -31 9 -73q-6 13 -16 11q-4 -1 1.5 -20 t13 -38t10.5 -19q1 -8 2.5 -17t4 -15.5l5 -13t4.5 -11t4 -8t3 -5.5l1 -2l1 -30l-178 -75v-42h500z" />
<glyph unicode="&#xe38b;" d="M788 200v50q0 36 -26 62t-62 26t-62 -26t-26 -62v-50h176zM1000 500l-116 -172q16 -37 16 -78h50v-350h-500v150h-450v600h50v150h200l150 -150h400v-50h-650l-100 -410l200 310h750zM900 -50v250h-50v50q0 62 -44 106t-106 44t-106 -44t-44 -106v-50h-50v-250h400z" />
<glyph unicode="&#xe38c;" d="M1000 500l-116 -172q16 -37 16 -78h50v-350h-500v150h-450v600h50v150h200l150 -150h400v-100h-50v50h-362l-150 150h-138v-150h-50v-410l200 310h750zM450 100v150h50q0 83 58.5 141.5t141.5 58.5q31 0 60.5 -10t54 -27t42.5 -40l54 77h-632l-222 -350h393zM900 -50v250 h-50v50q0 62 -44 106t-106 44t-106 -44t-44 -106v-50h-50v-250h400zM700 338q36 0 62 -26t26 -62v-50h-175v50q0 36 25.5 62t61.5 26z" />
<glyph unicode="&#xe38d;" d="M795 150q-5 -27 -16 -53l171 -72v-125h-600v150h-350v600h50v150h200l150 -150h400v-50h-650l-100 -410l200 310h750l-177 -263q0 -3 -2 -15.5t-9 -34.5t-17 -37zM900 -8l-178 75l1 30q21 31 25 72q1 0 5 8t8 19t7.5 22t4.5 18.5t-2 9.5q-9 2 -15 -11q6 51 6 73 q0 26 -19 52t-55 32l-20 4t-7 2t-8.5 4t-16.5 7q-3 -14 -24 -17q-30 -2 -53.5 -31t-23.5 -53q0 -32 8 -73q-5 13 -14 11q-5 -1 0.5 -20t13 -37.5t10.5 -19.5q2 -18 8 -36t11 -27l5 -9l1 -30l-178 -75v-42h500v42z" />
<glyph unicode="&#xe38e;" d="M795 150q-5 -27 -16 -53l171 -72v-125h-600v150h-350v600h50v150h200l150 -150h400v-100h-50v50h-362l-151 150h-137v-150h-50v-410l200 310h750l-177 -263q0 -3 -2 -15.5t-9 -34.5t-17 -37zM911 450h-244q4 -1 9 -4q1 0 22 -4q26 -5 48.5 -19t36 -33t21.5 -40t8 -42v-2z M57 100h463q-10 23 -15 50q-10 15 -17 37t-9 34.5t-2 14.5q-1 21 10 38q-2 15 -2 34q0 40 31 80t74 51l2 11h-313zM900 -9l-178 76l1 30q21 31 25 72q2 1 10 19.5t13 37.5t0 20q-9 2 -15 -11q6 51 6 73q0 26 -19 52t-55 32l-20 4t-7 2t-8.5 4t-16.5 6q-3 -13 -24 -16 q-30 -2 -53.5 -31t-23.5 -53q0 -32 8 -73q-5 13 -14 11q-5 -1 0.5 -20t13 -37.5t10.5 -19.5q1 -12 4 -23.5t6.5 -20t6.5 -15t5 -10.5l2 -3l1 -30l-178 -76v-41h500v41z" />
<glyph unicode="&#xe38f;" d="M500 800l200 -200h-200v200zM779 97l171 -72v-125h-600v100h-250v800h350v-250h250v-109q35 -7 61 -29t38.5 -49t12.5 -55q0 -21 -2 -31q15 -17 13 -40q0 -3 -2 -15.5t-9 -34.5t-17 -37q-5 -27 -16 -53zM900 -50v42l-178 75l1 30q21 31 25 72q2 1 10 19.5t13 37.5t0 20 q-9 2 -15 -11q6 51 6 73q0 26 -19 52t-55 32l-20 4t-7 2t-8.5 4t-16.5 7q-3 -14 -24 -17q-30 -2 -53.5 -31t-23.5 -53q0 -32 8 -73q-5 13 -14 11q-5 -1 0.5 -20t13 -37.5t10.5 -19.5q2 -18 8 -36t11 -27l5 -9l1 -30l-178 -75v-42h500z" />
<glyph unicode="&#xe390;" d="M779 97l171 -72v-125h-600v100h-250v800h400l200 -200v-159q51 -10 81.5 -49.5t30.5 -83.5q0 -21 -2 -31q15 -17 13 -41q0 -2 -2 -14.5t-9 -34.5t-17 -37q-5 -28 -16 -53zM500 727v-127h127zM150 50h260l111 47q-12 27 -16 53q-10 15 -17 37t-9 34.5t-2 14.5q-1 21 10 38 q-2 16 -2 34q0 40 31 80t74 52l6 36l54 -20v94h-200v200h-300v-700zM900 -50v42l-178 75l1 30q21 31 25 72q2 0 10 19t13 38t0 20q-9 2 -15 -11q6 51 6 73q0 26 -19 52t-55 32l-20 4t-7 2t-8.5 4t-16.5 6q-3 -13 -24 -16q-20 -1 -38.5 -16.5t-28.5 -34t-10 -33.5 q0 -32 9 -73q-6 13 -15 11q-3 -2 -2 -9.5t4.5 -18.5t8 -22t8 -19t5.5 -8q2 -18 8 -36t11 -27l5 -9l1 -30l-178 -75v-42h500z" />
</font>
</defs>
</svg>
